  0
SECTION
  2
HEADER
  9
$ACADVER
  1
AC1015
  9
$ACADMAINTVER
 70
     6
  9
$DWGCODEPAGE
  3
ANSI_1252
  9
$INSBASE
 10
0.0
 20
0.0
 30
0.0
  9
$EXTMIN
 10
1069.628024193549
 20
-49.40020161290402
 30
0.0
  9
$EXTMAX
 10
1663.628024193549
 20
370.5997983870962
 30
0.0
  9
$LIMMIN
 10
0.0
 20
0.0
  9
$LIMMAX
 10
12.0
 20
9.0
  9
$ORTHOMODE
 70
     0
  9
$REGENMODE
 70
     1
  9
$FILLMODE
 70
     1
  9
$QTEXTMODE
 70
     0
  9
$MIRRTEXT
 70
     1
  9
$LTSCALE
 40
1.0
  9
$ATTMODE
 70
     1
  9
$TEXTSIZE
 40
0.2
  9
$TRACEWID
 40
0.05
  9
$TEXTSTYLE
  7
Standard
  9
$CLAYER
  8
0
  9
$CELTYPE
  6
ByLayer
  9
$CECOLOR
 62
   256
  9
$CELTSCALE
 40
1.0
  9
$DISPSILH
 70
     0
  9
$DIMSCALE
 40
1.0
  9
$DIMASZ
 40
0.18
  9
$DIMEXO
 40
0.0625
  9
$DIMDLI
 40
0.38
  9
$DIMRND
 40
0.0
  9
$DIMDLE
 40
0.0
  9
$DIMEXE
 40
0.18
  9
$DIMTP
 40
0.0
  9
$DIMTM
 40
0.0
  9
$DIMTXT
 40
0.18
  9
$DIMCEN
 40
0.09
  9
$DIMTSZ
 40
0.0
  9
$DIMTOL
 70
     0
  9
$DIMLIM
 70
     0
  9
$DIMTIH
 70
     1
  9
$DIMTOH
 70
     1
  9
$DIMSE1
 70
     0
  9
$DIMSE2
 70
     0
  9
$DIMTAD
 70
     0
  9
$DIMZIN
 70
     0
  9
$DIMBLK
  1

  9
$DIMASO
 70
     1
  9
$DIMSHO
 70
     1
  9
$DIMPOST
  1

  9
$DIMAPOST
  1

  9
$DIMALT
 70
     0
  9
$DIMALTD
 70
     2
  9
$DIMALTF
 40
25.4
  9
$DIMLFAC
 40
1.0
  9
$DIMTOFL
 70
     0
  9
$DIMTVP
 40
0.0
  9
$DIMTIX
 70
     0
  9
$DIMSOXD
 70
     0
  9
$DIMSAH
 70
     0
  9
$DIMBLK1
  1

  9
$DIMBLK2
  1

  9
$DIMSTYLE
  2
Standard
  9
$DIMCLRD
 70
     0
  9
$DIMCLRE
 70
     0
  9
$DIMCLRT
 70
     0
  9
$DIMTFAC
 40
1.0
  9
$DIMGAP
 40
0.09
  9
$DIMJUST
 70
     0
  9
$DIMSD1
 70
     0
  9
$DIMSD2
 70
     0
  9
$DIMTOLJ
 70
     1
  9
$DIMTZIN
 70
     0
  9
$DIMALTZ
 70
     0
  9
$DIMALTTZ
 70
     0
  9
$DIMUPT
 70
     0
  9
$DIMDEC
 70
     4
  9
$DIMTDEC
 70
     4
  9
$DIMALTU
 70
     2
  9
$DIMALTTD
 70
     2
  9
$DIMTXSTY
  7
Standard
  9
$DIMAUNIT
 70
     0
  9
$DIMADEC
 70
     0
  9
$DIMALTRND
 40
0.0
  9
$DIMAZIN
 70
     0
  9
$DIMDSEP
 70
    46
  9
$DIMATFIT
 70
     3
  9
$DIMFRAC
 70
     0
  9
$DIMLDRBLK
  1

  9
$DIMLUNIT
 70
     2
  9
$DIMLWD
 70
    -2
  9
$DIMLWE
 70
    -2
  9
$DIMTMOVE
 70
     0
  9
$LUNITS
 70
     2
  9
$LUPREC
 70
     4
  9
$SKETCHINC
 40
0.1
  9
$FILLETRAD
 40
0.5
  9
$AUNITS
 70
     0
  9
$AUPREC
 70
     0
  9
$MENU
  1
.
  9
$ELEVATION
 40
0.0
  9
$PELEVATION
 40
0.0
  9
$THICKNESS
 40
0.0
  9
$LIMCHECK
 70
     0
  9
$CHAMFERA
 40
0.5
  9
$CHAMFERB
 40
0.5
  9
$CHAMFERC
 40
1.0
  9
$CHAMFERD
 40
0.0
  9
$SKPOLY
 70
     0
  9
$TDCREATE
 40
2456997.606580231
  9
$TDUCREATE
 40
2456997.564913565
  9
$TDUPDATE
 40
2456997.60658059
  9
$TDUUPDATE
 40
2456997.564913923
  9
$TDINDWG
 40
0.0000000116
  9
$TDUSRTIMER
 40
0.0000000116
  9
$USRTIMER
 70
     1
  9
$ANGBASE
 50
0.0
  9
$ANGDIR
 70
     0
  9
$PDMODE
 70
     0
  9
$PDSIZE
 40
0.0
  9
$PLINEWID
 40
0.0
  9
$SPLFRAME
 70
     0
  9
$SPLINETYPE
 70
     6
  9
$SPLINESEGS
 70
     8
  9
$HANDSEED
  5
2D2
  9
$SURFTAB1
 70
     6
  9
$SURFTAB2
 70
     6
  9
$SURFTYPE
 70
     6
  9
$SURFU
 70
     6
  9
$SURFV
 70
     6
  9
$UCSBASE
  2

  9
$UCSNAME
  2

  9
$UCSORG
 10
0.0
 20
0.0
 30
0.0
  9
$UCSXDIR
 10
1.0
 20
0.0
 30
0.0
  9
$UCSYDIR
 10
0.0
 20
1.0
 30
0.0
  9
$UCSORTHOREF
  2

  9
$UCSORTHOVIEW
 70
     0
  9
$UCSORGTOP
 10
0.0
 20
0.0
 30
0.0
  9
$UCSORGBOTTOM
 10
0.0
 20
0.0
 30
0.0
  9
$UCSORGLEFT
 10
0.0
 20
0.0
 30
0.0
  9
$UCSORGRIGHT
 10
0.0
 20
0.0
 30
0.0
  9
$UCSORGFRONT
 10
0.0
 20
0.0
 30
0.0
  9
$UCSORGBACK
 10
0.0
 20
0.0
 30
0.0
  9
$PUCSBASE
  2

  9
$PUCSNAME
  2

  9
$PUCSORG
 10
0.0
 20
0.0
 30
0.0
  9
$PUCSXDIR
 10
1.0
 20
0.0
 30
0.0
  9
$PUCSYDIR
 10
0.0
 20
1.0
 30
0.0
  9
$PUCSORTHOREF
  2

  9
$PUCSORTHOVIEW
 70
     0
  9
$PUCSORGTOP
 10
0.0
 20
0.0
 30
0.0
  9
$PUCSORGBOTTOM
 10
0.0
 20
0.0
 30
0.0
  9
$PUCSORGLEFT
 10
0.0
 20
0.0
 30
0.0
  9
$PUCSORGRIGHT
 10
0.0
 20
0.0
 30
0.0
  9
$PUCSORGFRONT
 10
0.0
 20
0.0
 30
0.0
  9
$PUCSORGBACK
 10
0.0
 20
0.0
 30
0.0
  9
$USERI1
 70
     0
  9
$USERI2
 70
     0
  9
$USERI3
 70
     0
  9
$USERI4
 70
     0
  9
$USERI5
 70
     0
  9
$USERR1
 40
18.1
  9
$USERR2
 40
0.0
  9
$USERR3
 40
0.0
  9
$USERR4
 40
0.0
  9
$USERR5
 40
0.0
  9
$WORLDVIEW
 70
     1
  9
$SHADEDGE
 70
     3
  9
$SHADEDIF
 70
    70
  9
$TILEMODE
 70
     1
  9
$MAXACTVP
 70
    64
  9
$PINSBASE
 10
0.0
 20
0.0
 30
0.0
  9
$PLIMCHECK
 70
     0
  9
$PEXTMIN
 10
1.00000000000000E+20
 20
1.00000000000000E+20
 30
1.00000000000000E+20
  9
$PEXTMAX
 10
-1.00000000000000E+20
 20
-1.00000000000000E+20
 30
-1.00000000000000E+20
  9
$PLIMMIN
 10
0.0
 20
0.0
  9
$PLIMMAX
 10
12.0
 20
9.0
  9
$UNITMODE
 70
     0
  9
$VISRETAIN
 70
     1
  9
$PLINEGEN
 70
     0
  9
$PSLTSCALE
 70
     1
  9
$TREEDEPTH
 70
  3020
  9
$CMLSTYLE
  2
Standard
  9
$CMLJUST
 70
     0
  9
$CMLSCALE
 40
1.0
  9
$PROXYGRAPHICS
 70
     1
  9
$MEASUREMENT
 70
     1
  9
$CELWEIGHT
370
    -1
  9
$ENDCAPS
280
     0
  9
$JOINSTYLE
280
     0
  9
$LWDISPLAY
290
     0
  9
$INSUNITS
 70
     4
  9
$HYPERLINKBASE
  1

  9
$STYLESHEET
  1

  9
$XEDIT
290
     1
  9
$CEPSNTYPE
380
     0
  9
$PSTYLEMODE
290
     1
  9
$FINGERPRINTGUID
  2
{8A031B26-4139-429F-84C8-134EFD1CE3BA}
  9
$VERSIONGUID
  2
{FAEB1C32-E019-11D5-929B-00C0DF256EC4}
  9
$EXTNAMES
290
     1
  9
$PSVPSCALE
 40
0.0
  9
$OLESTARTUP
290
     0
  0
ENDSEC
  0
SECTION
  2
CLASSES
  0
CLASS
  1
ACDBDICTIONARYWDFLT
  2
AcDbDictionaryWithDefault
  3
ObjectDBX Classes
 90
        0
280
     0
281
     0
  0
CLASS
  1
VISUALSTYLE
  2
AcDbVisualStyle
  3
ObjectDBX Classes
 90
     4095
280
     0
281
     0
  0
CLASS
  1
MATERIAL
  2
AcDbMaterial
  3
ObjectDBX Classes
 90
     1153
280
     0
281
     0
  0
CLASS
  1
DICTIONARYVAR
  2
AcDbDictionaryVar
  3
ObjectDBX Classes
 90
        0
280
     0
281
     0
  0
CLASS
  1
ACDBPLACEHOLDER
  2
AcDbPlaceHolder
  3
ObjectDBX Classes
 90
        0
280
     0
281
     0
  0
CLASS
  1
LAYOUT
  2
AcDbLayout
  3
ObjectDBX Classes
 90
        0
280
     0
281
     0
  0
ENDSEC
  0
SECTION
  2
TABLES
  0
TABLE
  2
VPORT
  5
8
330
0
100
AcDbSymbolTable
 70
     1
  0
VPORT
  5
29
330
8
100
AcDbSymbolTableRecord
100
AcDbViewportTableRecord
  2
*Active
 70
     0
 10
0.0
 20
0.0
 11
1.0
 21
1.0
 12
1366.628024193549
 22
160.5997983870961
 13
0.0
 23
0.0
 14
0.5
 24
0.5
 15
0.5
 25
0.5
 16
0.0
 26
0.0
 36
1.0
 17
0.0
 27
0.0
 37
0.0
 40
462.0000000000003
 41
1.60267857142857
 42
50.0
 43
0.0
 44
0.0
 50
0.0
 51
0.0
 71
     0
 72
   100
 73
     1
 74
     3
 75
     0
 76
     0
 77
     0
 78
     0
281
     0
 65
     1
110
0.0
120
0.0
130
0.0
111
1.0
121
0.0
131
0.0
112
0.0
122
1.0
132
0.0
 79
     0
146
0.0
  0
ENDTAB
  0
TABLE
  2
LTYPE
  5
5
330
0
100
AcDbSymbolTable
 70
     8
  0
LTYPE
  5
14
330
5
100
AcDbSymbolTableRecord
100
AcDbLinetypeTableRecord
  2
ByBlock
 70
     0
  3

 72
    65
 73
     0
 40
0.0
  0
LTYPE
  5
15
330
5
100
AcDbSymbolTableRecord
100
AcDbLinetypeTableRecord
  2
ByLayer
 70
     0
  3

 72
    65
 73
     0
 40
0.0
  0
LTYPE
  5
16
330
5
100
AcDbSymbolTableRecord
100
AcDbLinetypeTableRecord
  2
Continuous
 70
     0
  3
Solid line
 72
    65
 73
     0
 40
0.0
  0
LTYPE
  5
3F
330
5
100
AcDbSymbolTableRecord
100
AcDbLinetypeTableRecord
  2
DASHED
 70
     0
  3
Dashed
 72
    65
 73
     2
 40
15.0
 49
7.0
 74
     0
 49
-8.0
 74
     0
  0
LTYPE
  5
40
330
5
100
AcDbSymbolTableRecord
100
AcDbLinetypeTableRecord
  2
DOTTED
 70
     0
  3
Dotted
 72
    65
 73
     2
 40
1.0
 49
0.0
 74
     0
 49
-1.0
 74
     0
  0
LTYPE
  5
41
330
5
100
AcDbSymbolTableRecord
100
AcDbLinetypeTableRecord
  2
DOT_CENTER
 70
     0
  3
Dot_Center
 72
    65
 73
     4
 40
14.0
 49
12.0
 74
     0
 49
-1.0
 74
     0
 49
0.0
 74
     0
 49
-1.0
 74
     0
  0
LTYPE
  5
42
330
5
100
AcDbSymbolTableRecord
100
AcDbLinetypeTableRecord
  2
LONG_DASHED
 70
     0
  3
Long_Dashed
 72
    65
 73
     2
 40
15.0
 49
10.0
 74
     0
 49
-5.0
 74
     0
  0
LTYPE
  5
43
330
5
100
AcDbSymbolTableRecord
100
AcDbLinetypeTableRecord
  2
DASH_CENTER
 70
     0
  3
Dash_Center
 72
    65
 73
     4
 40
14.0
 49
11.0
 74
     0
 49
-1.0
 74
     0
 49
1.0
 74
     0
 49
-1.0
 74
     0
  0
LTYPE
  5
44
330
5
100
AcDbSymbolTableRecord
100
AcDbLinetypeTableRecord
  2
PHANTOM
 70
     0
  3
Phantom
 72
    65
 73
     6
 40
13.0
 49
10.0
 74
     0
 49
-1.0
 74
     0
 49
0.0
 74
     0
 49
-1.0
 74
     0
 49
0.0
 74
     0
 49
-1.0
 74
     0
  0
LTYPE
  5
45
330
5
100
AcDbSymbolTableRecord
100
AcDbLinetypeTableRecord
  2
CENTER_DASH_DASH
 70
     0
  3
Center_Dash_Dash
 72
    65
 73
     6
 40
14.0
 49
9.0
 74
     0
 49
-1.0
 74
     0
 49
1.0
 74
     0
 49
-1.0
 74
     0
 49
1.0
 74
     0
 49
-1.0
 74
     0
  0
ENDTAB
  0
TABLE
  2
LAYER
  5
2
330
0
100
AcDbSymbolTable
 70
     3
  0
LAYER
  5
10
330
2
100
AcDbSymbolTableRecord
100
AcDbLayerTableRecord
  2
0
 70
     0
 62
     7
  6
Continuous
370
    -3
390
F
  0
LAYER
  5
46
330
2
100
AcDbSymbolTableRecord
100
AcDbLayerTableRecord
  2
1
 70
     0
 62
     7
  6
Continuous
370
    -3
390
F
  0
LAYER
  5
47
330
2
100
AcDbSymbolTableRecord
100
AcDbLayerTableRecord
  2
Sichtbare_Kanten_TC_020513_DIN_
 70
     0
 62
     7
  6
Continuous
370
    -3
390
F
  0
ENDTAB
  0
TABLE
  2
STYLE
  5
3
330
0
100
AcDbSymbolTable
 70
     4
  0
STYLE
  5
11
330
3
100
AcDbSymbolTableRecord
100
AcDbTextStyleTableRecord
  2
Standard
 70
     0
 40
0.0
 41
1.0
 50
0.0
 71
     0
 42
0.2
  3
txt
  4

  0
STYLE
  5
9B
330
3
100
AcDbSymbolTableRecord
100
AcDbTextStyleTableRecord
  2
CONVERTER_11
 70
     0
 40
0.0
 41
1.2
 50
0.0
 71
     0
 42
0.2
  3
ARIAL.TTF
  4

  0
STYLE
  5
23F
330
3
100
AcDbSymbolTableRecord
100
AcDbTextStyleTableRecord
  2
CONVERTER_12
 70
     0
 40
0.0
 41
1.08
 50
0.0
 71
     0
 42
0.2
  3
ARIAL.TTF
  4

  0
STYLE
  5
247
330
3
100
AcDbSymbolTableRecord
100
AcDbTextStyleTableRecord
  2
CONVERTER_13
 70
     0
 40
0.0
 41
0.95
 50
0.0
 71
     0
 42
0.2
  3
simplex.shx
  4

  0
ENDTAB
  0
TABLE
  2
VIEW
  5
6
330
0
100
AcDbSymbolTable
 70
     0
  0
ENDTAB
  0
TABLE
  2
UCS
  5
7
330
0
100
AcDbSymbolTable
 70
     0
  0
ENDTAB
  0
TABLE
  2
APPID
  5
9
330
0
100
AcDbSymbolTable
 70
     1
  0
APPID
  5
12
330
9
100
AcDbSymbolTableRecord
100
AcDbRegAppTableRecord
  2
ACAD
 70
     0
  0
ENDTAB
  0
TABLE
  2
DIMSTYLE
  5
A
330
0
100
AcDbSymbolTable
 70
    10
100
AcDbDimStyleTable
  0
DIMSTYLE
105
27
330
A
100
AcDbSymbolTableRecord
100
AcDbDimStyleTableRecord
  2
Standard
 70
     0
178
     0
340
11
  0
DIMSTYLE
105
24B
102
{ACAD_REACTORS
330
24C
102
}
330
A
100
AcDbSymbolTableRecord
100
AcDbDimStyleTableRecord
  2
ME10_DIM_10
 70
     0
 41
6.0
 42
1.0
 44
2.0
 73
     0
 74
     0
 77
     1
 78
     8
140
6.0
147
4.0
172
     1
173
     1
174
     1
175
     1
176
     2
177
     2
271
     2
178
     4
271
     2
340
247
  0
DIMSTYLE
105
256
102
{ACAD_REACTORS
330
257
102
}
330
A
100
AcDbSymbolTableRecord
100
AcDbDimStyleTableRecord
  2
ME10_DIM_11
 70
     0
 41
6.0
 42
1.0
 44
2.0
 73
     0
 74
     0
 77
     1
 78
     8
140
6.0
147
4.0
172
     1
173
     1
174
     1
175
     1
176
     2
177
     2
271
     2
178
     4
271
     2
340
247
  0
DIMSTYLE
105
261
102
{ACAD_REACTORS
330
262
102
}
330
A
100
AcDbSymbolTableRecord
100
AcDbDimStyleTableRecord
  2
ME10_DIM_12
 70
     0
 41
6.0
 42
1.0
 44
2.0
 73
     0
 74
     0
 77
     1
 78
     8
140
6.0
147
4.0
172
     1
173
     1
174
     1
175
     1
176
     2
177
     2
271
     2
178
     4
271
     2
340
247
  0
DIMSTYLE
105
26C
102
{ACAD_REACTORS
330
26D
102
}
330
A
100
AcDbSymbolTableRecord
100
AcDbDimStyleTableRecord
  2
ME10_DIM_13
 70
     0
 41
6.0
 42
1.0
 44
2.0
 73
     0
 74
     0
 77
     1
 78
     8
140
6.0
147
4.0
172
     1
173
     1
174
     1
175
     1
176
     2
177
     2
271
     2
178
     4
271
     2
340
247
  0
DIMSTYLE
105
277
102
{ACAD_REACTORS
330
278
102
}
330
A
100
AcDbSymbolTableRecord
100
AcDbDimStyleTableRecord
  2
ME10_DIM_14
 70
     0
 41
6.0
 42
1.0
 44
2.0
 73
     0
 74
     0
 77
     1
 78
     8
140
6.0
147
4.0
172
     1
173
     1
174
     1
175
     1
176
     2
177
     2
271
     2
178
     4
271
     2
340
247
  0
DIMSTYLE
105
284
102
{ACAD_REACTORS
330
285
102
}
330
A
100
AcDbSymbolTableRecord
100
AcDbDimStyleTableRecord
  2
ME10_DIM_15
 70
     0
 41
6.0
 42
1.0
 44
2.0
 73
     0
 74
     0
 77
     1
 78
     8
140
6.0
147
4.0
172
     1
173
     1
174
     1
175
     1
176
     2
177
     2
271
     2
178
     4
271
     2
340
247
  0
DIMSTYLE
105
28F
102
{ACAD_REACTORS
330
290
102
}
330
A
100
AcDbSymbolTableRecord
100
AcDbDimStyleTableRecord
  2
ME10_DIM_16
 70
     0
  3
M<>
 41
6.0
 42
1.0
 44
2.0
 73
     0
 74
     0
 77
     1
 78
     8
140
6.0
147
4.0
172
     1
173
     1
174
     1
175
     1
176
     2
177
     2
271
     2
178
     4
271
     2
340
247
  0
DIMSTYLE
105
29A
102
{ACAD_REACTORS
330
29B
102
}
330
A
100
AcDbSymbolTableRecord
100
AcDbDimStyleTableRecord
  2
ME10_DIM_17
 70
     0
 41
6.0
 42
1.0
 44
2.0
 73
     0
 74
     0
 77
     1
 78
     8
140
6.0
147
4.0
172
     1
173
     1
174
     1
175
     1
176
     2
177
     2
271
     2
178
     4
271
     2
340
247
  0
DIMSTYLE
105
2A5
102
{ACAD_REACTORS
330
2A6
102
}
330
A
100
AcDbSymbolTableRecord
100
AcDbDimStyleTableRecord
  2
ME10_DIM_18
 70
     0
 41
6.0
 42
1.0
 44
2.0
 73
     0
 74
     0
 77
     1
 78
     8
140
6.0
147
4.0
172
     1
173
     1
174
     1
175
     1
176
     2
177
     2
271
     2
178
     4
271
     2
340
247
  0
ENDTAB
  0
TABLE
  2
BLOCK_RECORD
  5
1
330
0
100
AcDbSymbolTable
 70
    12
  0
BLOCK_RECORD
  5
1F
330
1
100
AcDbSymbolTableRecord
100
AcDbBlockTableRecord
  2
*Model_Space
340
22
  0
BLOCK_RECORD
  5
1B
330
1
100
AcDbSymbolTableRecord
100
AcDbBlockTableRecord
  2
*Paper_Space
340
1E
  0
BLOCK_RECORD
  5
23
330
1
100
AcDbSymbolTableRecord
100
AcDbBlockTableRecord
  2
*Paper_Space0
340
26
  0
BLOCK_RECORD
  5
48
330
1
100
AcDbSymbolTableRecord
100
AcDbBlockTableRecord
  2
_formato_A4
340
0
102
{BLKREFS
331
4C
102
}
  0
BLOCK_RECORD
  5
4B
330
1
100
AcDbSymbolTableRecord
100
AcDbBlockTableRecord
  2
A4_oriz
340
0
102
{BLKREFS
331
4F
102
}
  0
BLOCK_RECORD
  5
241
330
1
100
AcDbSymbolTableRecord
100
AcDbBlockTableRecord
  2
*D3
340
0
  0
BLOCK_RECORD
  5
24D
330
1
100
AcDbSymbolTableRecord
100
AcDbBlockTableRecord
  2
*D4
340
0
  0
BLOCK_RECORD
  5
258
330
1
100
AcDbSymbolTableRecord
100
AcDbBlockTableRecord
  2
*D5
340
0
  0
BLOCK_RECORD
  5
263
330
1
100
AcDbSymbolTableRecord
100
AcDbBlockTableRecord
  2
*D6
340
0
  0
BLOCK_RECORD
  5
26E
330
1
100
AcDbSymbolTableRecord
100
AcDbBlockTableRecord
  2
*D7
340
0
  0
BLOCK_RECORD
  5
279
330
1
100
AcDbSymbolTableRecord
100
AcDbBlockTableRecord
  2
*D8
340
0
  0
BLOCK_RECORD
  5
286
330
1
100
AcDbSymbolTableRecord
100
AcDbBlockTableRecord
  2
*D9
340
0
  0
BLOCK_RECORD
  5
291
330
1
100
AcDbSymbolTableRecord
100
AcDbBlockTableRecord
  2
*D10
340
0
  0
BLOCK_RECORD
  5
29C
330
1
100
AcDbSymbolTableRecord
100
AcDbBlockTableRecord
  2
*D11
340
0
  0
ENDTAB
  0
ENDSEC
  0
SECTION
  2
BLOCKS
  0
BLOCK
  5
20
330
1F
100
AcDbEntity
  8
0
100
AcDbBlockBegin
  2
*Model_Space
 70
     0
 10
0.0
 20
0.0
 30
0.0
  3
*Model_Space
  1

  0
ENDBLK
  5
21
330
1F
100
AcDbEntity
  8
0
100
AcDbBlockEnd
  0
BLOCK
  5
1C
330
1B
100
AcDbEntity
 67
     1
  8
0
100
AcDbBlockBegin
  2
*Paper_Space
 70
     0
 10
0.0
 20
0.0
 30
0.0
  3
*Paper_Space
  1

  0
ENDBLK
  5
1D
330
1B
100
AcDbEntity
 67
     1
  8
0
100
AcDbBlockEnd
  0
BLOCK
  5
24
330
23
100
AcDbEntity
  8
0
100
AcDbBlockBegin
  2
*Paper_Space0
 70
     0
 10
0.0
 20
0.0
 30
0.0
  3
*Paper_Space0
  1

  0
ENDBLK
  5
25
330
23
100
AcDbEntity
  8
0
100
AcDbBlockEnd
  0
BLOCK
  5
49
330
48
100
AcDbEntity
  8
0
100
AcDbBlockBegin
  2
_formato_A4
 70
     0
 10
831.8140120967744
 20
-24.70010080645201
 30
0.0
  3
_formato_A4
  1

  0
LINE
  5
50
330
48
100
AcDbEntity
  8
1
  6
Continuous
 62
     7
100
AcDbLine
 10
782.8140120967744
 20
-4.70010080645201
 30
0.0
 11
782.8140120967744
 21
-19.70010080645201
 31
0.0
  0
LINE
  5
51
330
48
100
AcDbEntity
  8
1
  6
Continuous
 62
     7
100
AcDbLine
 10
800.1666134742597
 20
-4.70010080645201
 30
0.0
 11
800.1666134742597
 21
-19.70010080645201
 31
0.0
  0
LINE
  5
52
330
48
100
AcDbEntity
  8
1
  6
Continuous
 62
     7
100
AcDbLine
 10
672.8140120967744
 20
-4.70010080645201
 30
0.0
 11
672.8140120967744
 21
-19.70010080645201
 31
0.0
  0
LINE
  5
53
330
48
100
AcDbEntity
  8
1
  6
Continuous
 62
     7
100
AcDbLine
 10
642.8140120967744
 20
-12.20010080645201
 30
0.0
 11
672.8140120967744
 21
-12.20010080645201
 31
0.0
  0
LINE
  5
54
330
48
100
AcDbEntity
  8
1
  6
Continuous
 62
     7
100
AcDbLine
 10
683.314012096774
 20
185.2998991935481
 30
0.0
 11
683.314012096774
 21
170.2998991935481
 31
0.0
  0
LINE
  5
55
330
48
100
AcDbEntity
  8
1
  6
Continuous
 62
     7
100
AcDbLine
 10
534.8140120967743
 20
-24.70010080645201
 30
0.0
 11
831.8140120967744
 21
-24.70010080645201
 31
0.0
  0
LINE
  5
56
330
48
100
AcDbEntity
  8
1
  6
Continuous
 62
     7
100
AcDbLine
 10
534.8140120967743
 20
185.2998991935481
 30
0.0
 11
534.8140120967743
 21
-24.70010080645201
 31
0.0
  0
LINE
  5
57
330
48
100
AcDbEntity
  8
1
  6
Continuous
 62
     7
100
AcDbLine
 10
831.8140120967744
 20
185.2998991935481
 30
0.0
 11
534.8140120967743
 21
185.2998991935481
 31
0.0
  0
LINE
  5
58
330
48
100
AcDbEntity
  8
1
  6
Continuous
 62
     7
100
AcDbLine
 10
831.8140120967744
 20
-24.70010080645201
 30
0.0
 11
831.8140120967744
 21
185.2998991935481
 31
0.0
  0
LINE
  5
59
330
48
100
AcDbEntity
  8
1
  6
Continuous
 62
     7
100
AcDbLine
 10
539.8140120967741
 20
-19.70010080645201
 30
0.0
 11
826.8140120967744
 21
-19.70010080645201
 31
0.0
  0
LINE
  5
5A
330
48
100
AcDbEntity
  8
1
  6
Continuous
 62
     7
100
AcDbLine
 10
826.8140120967744
 20
-19.70010080645201
 30
0.0
 11
826.8140120967744
 21
164.299899193548
 31
0.0
  0
LINE
  5
5B
330
48
100
AcDbEntity
  8
1
  6
Continuous
 62
     7
100
AcDbLine
 10
826.8140120967744
 20
164.299899193548
 30
0.0
 11
539.8140120967741
 21
164.299899193548
 31
0.0
  0
LINE
  5
5C
102
{ACAD_REACTORS
330
A3
102
}
330
48
100
AcDbEntity
  8
1
  6
Continuous
 62
     7
100
AcDbLine
 10
815.8236461188504
 20
-14.62260096661939
 30
0.0
 11
815.8236461188504
 21
-9.77760064628464
 31
0.0
  0
LINE
  5
5D
102
{ACAD_REACTORS
330
A0
102
}
330
48
100
AcDbEntity
  8
1
  6
Continuous
 62
     7
100
AcDbLine
 10
814.4903127855171
 20
-12.20010080645201
 30
0.0
 11
814.4903127855171
 21
-10.46804999888317
 31
0.0
  0
LINE
  5
5E
102
{ACAD_REACTORS
330
A0
102
}
330
48
100
AcDbEntity
  8
1
  6
Continuous
 62
     7
100
AcDbLine
 10
814.4903127855171
 20
-10.46804999888317
 30
0.0
 11
813.6346503528144
 21
-11.95010080645201
 31
0.0
  0
LINE
  5
5F
102
{ACAD_REACTORS
330
A0
102
}
330
48
100
AcDbEntity
  8
1
  6
Continuous
 62
     7
100
AcDbLine
 10
813.3459752182196
 20
-11.95010080645201
 30
0.0
 11
812.4903127855171
 21
-10.46804999888317
 31
0.0
  0
LINE
  5
60
102
{ACAD_REACTORS
330
A0
102
}
330
48
100
AcDbEntity
  8
1
  6
Continuous
 62
     7
100
AcDbLine
 10
812.4903127855171
 20
-10.46804999888317
 30
0.0
 11
812.490312785517
 21
-12.20010080645207
 31
0.0
  0
LINE
  5
61
330
48
100
AcDbEntity
  8
1
  6
Continuous
 62
     7
100
AcDbLine
 10
805.0738775103755
 20
-12.05573654211068
 30
0.0
 11
813.490312785517
 21
-7.20010080645207
 31
0.0
  0
LINE
  5
62
330
48
100
AcDbEntity
  8
1
  6
Continuous
 62
     7
100
AcDbLine
 10
813.490312785517
 20
-7.20010080645207
 30
0.0
 11
821.9067480606584
 21
-12.05573654211068
 31
0.0
  0
LINE
  5
63
330
48
100
AcDbEntity
  8
1
  6
Continuous
 62
     7
100
AcDbLine
 10
821.9067480606584
 20
-12.34446507079346
 30
0.0
 11
813.4903127855171
 21
-17.20010080645201
 31
0.0
  0
LINE
  5
64
330
48
100
AcDbEntity
  8
1
  6
Continuous
 62
     7
100
AcDbLine
 10
813.4903127855171
 20
-17.20010080645201
 30
0.0
 11
805.0738775103755
 21
-12.34446507079346
 31
0.0
  0
LINE
  5
65
102
{ACAD_REACTORS
330
A0
102
}
330
48
100
AcDbEntity
  8
1
  6
Continuous
 62
     7
100
AcDbLine
 10
811.8236461188502
 20
-12.20010080645201
 30
0.0
 11
811.8236461188502
 21
-8.96888349441744
 31
0.0
  0
LINE
  5
66
102
{ACAD_REACTORS
330
A0
102
}
330
48
100
AcDbEntity
  8
1
  6
Continuous
 62
     7
100
AcDbLine
 10
812.3180798024737
 20
-8.83640038817973
 30
0.0
 11
813.4903127855171
 21
-10.86676747311876
 31
0.0
  0
LINE
  5
67
102
{ACAD_REACTORS
330
A0
102
}
330
48
100
AcDbEntity
  8
1
  6
Continuous
 62
     7
100
AcDbLine
 10
811.8236461188502
 20
-12.20010080645201
 30
0.0
 11
811.8236461188502
 21
-13.8525157338191
 31
0.0
  0
LINE
  5
68
102
{ACAD_REACTORS
330
A0
102
}
330
48
100
AcDbEntity
  8
1
  6
Continuous
 62
     7
100
AcDbLine
 10
812.4903127855171
 20
-13.8525157338191
 30
0.0
 11
812.490312785517
 21
-12.20010080645207
 31
0.0
  0
LINE
  5
69
102
{ACAD_REACTORS
330
A0
102
}
330
48
100
AcDbEntity
  8
1
  6
Continuous
 62
     7
100
AcDbLine
 10
814.4903127855171
 20
-12.20010080645201
 30
0.0
 11
814.4903127855171
 21
-15.39183173585022
 31
0.0
  0
LINE
  5
6A
102
{ACAD_REACTORS
330
A0
102
}
330
48
100
AcDbEntity
  8
1
  6
Continuous
 62
     7
100
AcDbLine
 10
815.1569794521836
 20
-15.39183173585022
 30
0.0
 11
815.1569794521836
 21
-8.96888349441744
 31
0.0
  0
LINE
  5
6B
102
{ACAD_REACTORS
330
A0
102
}
330
48
100
AcDbEntity
  8
1
  6
Continuous
 62
     7
100
AcDbLine
 10
814.6625457685603
 20
-8.83640038817973
 30
0.0
 11
813.4903127855171
 21
-10.86676747311876
 31
0.0
  0
LINE
  5
6C
102
{ACAD_REACTORS
330
A1
102
}
330
48
100
AcDbEntity
  8
1
  6
Continuous
 62
     7
100
AcDbLine
 10
810.4903127855171
 20
-14.43007965841943
 30
0.0
 11
810.4903127855171
 21
-9.77760064628464
 31
0.0
  0
LINE
  5
6D
102
{ACAD_REACTORS
330
A1
102
}
330
48
100
AcDbEntity
  8
1
  6
Continuous
 62
     7
100
AcDbLine
 10
811.1569794521836
 20
-9.77760064628464
 30
0.0
 11
811.1569794521836
 21
-14.43007965841932
 31
0.0
  0
LINE
  5
6E
102
{ACAD_REACTORS
330
A1
102
}
330
48
100
AcDbEntity
  8
1
  6
Continuous
 62
     7
100
AcDbLine
 10
811.1569794521836
 20
-14.43007965841932
 30
0.0
 11
813.3235536033468
 21
-15.68002628409042
 31
0.0
  0
LINE
  5
6F
102
{ACAD_REACTORS
330
A1
102
}
330
48
100
AcDbEntity
  8
1
  6
Continuous
 62
     7
100
AcDbLine
 10
812.9904053010205
 20
-16.25748334145621
 30
0.0
 11
810.8238311498574
 21
-15.00753671578511
 31
0.0
  0
LINE
  5
70
102
{ACAD_REACTORS
330
A2
102
}
330
48
100
AcDbEntity
  8
1
  6
Continuous
 62
     7
100
AcDbLine
 10
809.8236461188502
 20
-10.54683141551536
 30
0.0
 11
809.8236461188502
 21
-13.66084888918871
 31
0.0
  0
LINE
  5
71
102
{ACAD_REACTORS
330
A2
102
}
330
48
100
AcDbEntity
  8
1
  6
Continuous
 62
     7
100
AcDbLine
 10
809.8236461188502
 20
-13.66084888918871
 30
0.0
 11
809.8236461188502
 21
-13.85337019738878
 31
0.0
  0
LINE
  5
72
102
{ACAD_REACTORS
330
A2
102
}
330
48
100
AcDbEntity
  8
1
  6
Continuous
 62
     7
100
AcDbLine
 10
809.1569794521836
 20
-13.85337019738878
 30
0.0
 11
809.1569794521836
 21
-10.54683141551536
 31
0.0
  0
LINE
  5
73
102
{ACAD_REACTORS
330
A3
102
}
330
48
100
AcDbEntity
  8
1
  6
Continuous
 62
     7
100
AcDbLine
 10
816.3235536033468
 20
-9.48887211760174
 30
0.0
 11
817.6568869366802
 21
-10.25810288683258
 31
0.0
  0
LINE
  5
74
102
{ACAD_REACTORS
330
A3
102
}
330
48
100
AcDbEntity
  8
1
  6
Continuous
 62
     7
100
AcDbLine
 10
817.3237386343538
 20
-10.83555994419825
 30
0.0
 11
816.4903127855171
 21
-10.35473733910007
 31
0.0
  0
LINE
  5
75
102
{ACAD_REACTORS
330
A3
102
}
330
48
100
AcDbEntity
  8
1
  6
Continuous
 62
     7
100
AcDbLine
 10
816.4903127855171
 20
-10.35473733910007
 30
0.0
 11
816.490312785517
 21
-11.86676747311876
 31
0.0
  0
LINE
  5
76
102
{ACAD_REACTORS
330
A3
102
}
330
48
100
AcDbEntity
  8
1
  6
Continuous
 62
     7
100
AcDbLine
 10
816.490312785517
 20
-11.86676747311876
 30
0.0
 11
817.4903127855171
 21
-11.86676747311876
 31
0.0
  0
LINE
  5
77
102
{ACAD_REACTORS
330
A3
102
}
330
48
100
AcDbEntity
  8
1
  6
Continuous
 62
     7
100
AcDbLine
 10
817.4903127855171
 20
-12.53343413978539
 30
0.0
 11
816.490312785517
 21
-12.53343413978539
 31
0.0
  0
LINE
  5
78
102
{ACAD_REACTORS
330
A3
102
}
330
48
100
AcDbEntity
  8
1
  6
Continuous
 62
     7
100
AcDbLine
 10
816.490312785517
 20
-12.53343413978539
 30
0.0
 11
816.4903127855171
 21
-14.04546427380407
 31
0.0
  0
LINE
  5
79
102
{ACAD_REACTORS
330
A3
102
}
330
48
100
AcDbEntity
  8
1
  6
Continuous
 62
     7
100
AcDbLine
 10
816.4903127855171
 20
-14.04546427380407
 30
0.0
 11
817.3237386343538
 21
-13.56464166870578
 31
0.0
  0
LINE
  5
7A
102
{ACAD_REACTORS
330
A3
102
}
330
48
100
AcDbEntity
  8
1
  6
Continuous
 62
     7
100
AcDbLine
 10
817.6568869366802
 20
-14.14209872607168
 30
0.0
 11
816.3235536033468
 21
-14.91132949530228
 31
0.0
  0
LINE
  5
7B
330
48
100
AcDbEntity
  8
1
  6
Continuous
 62
     7
100
AcDbLine
 10
642.8140120967744
 20
0.29989919354793
 30
0.0
 11
826.8140120967744
 21
0.29989919354793
 31
0.0
  0
LINE
  5
7C
330
48
100
AcDbEntity
  8
1
  6
Continuous
 62
     7
100
AcDbLine
 10
649.8140120967744
 20
-4.70010080645201
 30
0.0
 11
649.8140120967744
 21
0.29989919354793
 31
0.0
  0
LINE
  5
7D
330
48
100
AcDbEntity
  8
1
  6
Continuous
 62
     7
100
AcDbLine
 10
667.8140120967744
 20
-4.70010080645201
 30
0.0
 11
667.8140120967744
 21
0.29989919354793
 31
0.0
  0
LINE
  5
7E
330
48
100
AcDbEntity
  8
1
  6
Continuous
 62
     7
100
AcDbLine
 10
642.8140120967744
 20
5.29989919354793
 30
0.0
 11
826.8140120967744
 21
5.29989919354799
 31
0.0
  0
LINE
  5
7F
330
48
100
AcDbEntity
  8
1
  6
Continuous
 62
     7
100
AcDbLine
 10
649.8140120967744
 20
0.29989919354793
 30
0.0
 11
649.8140120967744
 21
5.29989919354793
 31
0.0
  0
LINE
  5
80
330
48
100
AcDbEntity
  8
1
  6
Continuous
 62
     7
100
AcDbLine
 10
667.8140120967744
 20
0.29989919354793
 30
0.0
 11
667.8140120967744
 21
5.29989919354793
 31
0.0
  0
LINE
  5
81
330
48
100
AcDbEntity
  8
1
  6
Continuous
 62
     7
100
AcDbLine
 10
642.8140120967744
 20
10.29989919354799
 30
0.0
 11
826.8140120967744
 21
10.29989919354793
 31
0.0
  0
LINE
  5
82
330
48
100
AcDbEntity
  8
1
  6
Continuous
 62
     7
100
AcDbLine
 10
649.8140120967744
 20
5.29989919354793
 30
0.0
 11
649.8140120967744
 21
10.29989919354793
 31
0.0
  0
LINE
  5
83
330
48
100
AcDbEntity
  8
1
  6
Continuous
 62
     7
100
AcDbLine
 10
667.8140120967744
 20
5.29989919354793
 30
0.0
 11
667.8140120967744
 21
10.29989919354793
 31
0.0
  0
LINE
  5
84
330
48
100
AcDbEntity
  8
1
  6
Continuous
 62
     7
100
AcDbLine
 10
642.8140120967744
 20
15.29989919354793
 30
0.0
 11
826.8140120967744
 21
15.29989919354799
 31
0.0
  0
LINE
  5
85
330
48
100
AcDbEntity
  8
1
  6
Continuous
 62
     7
100
AcDbLine
 10
649.8140120967744
 20
10.29989919354793
 30
0.0
 11
649.8140120967744
 21
15.29989919354793
 31
0.0
  0
LINE
  5
86
330
48
100
AcDbEntity
  8
1
  6
Continuous
 62
     7
100
AcDbLine
 10
667.8140120967744
 20
10.29989919354793
 30
0.0
 11
667.8140120967744
 21
15.29989919354793
 31
0.0
  0
LINE
  5
87
330
48
100
AcDbEntity
  8
1
  6
Continuous
 62
     7
100
AcDbLine
 10
539.8140120967741
 20
164.299899193548
 30
0.0
 11
539.8140120967741
 21
-19.70010080645201
 31
0.0
  0
LINE
  5
88
330
48
100
AcDbEntity
  8
1
  6
Continuous
 62
     7
100
AcDbLine
 10
642.8140120967744
 20
-4.70010080645201
 30
0.0
 11
826.8140120967744
 21
-4.70010080645201
 31
0.0
  0
LINE
  5
89
330
48
100
AcDbEntity
  8
1
  6
Continuous
 62
     7
100
AcDbLine
 10
642.8140120967744
 20
-19.70010080645213
 30
0.0
 11
642.8140120967744
 21
15.29989919354793
 31
0.0
  0
ARC
  5
8A
102
{ACAD_REACTORS
330
A0
102
}
330
48
100
AcDbEntity
  8
1
  6
Continuous
 62
     7
100
AcDbCircle
 10
812.0886123313256
 20
-8.96888349441744
 30
0.0
 40
0.2649662124752335
100
AcDbArc
 50
30.00000000002436
 51
180.0
  0
ARC
  5
8B
102
{ACAD_REACTORS
330
A0
102
}
330
48
100
AcDbEntity
  8
1
  6
Continuous
 62
     7
100
AcDbCircle
 10
812.1569794521836
 20
-13.8525157338191
 30
0.0
 40
0.3333333333333712
100
AcDbArc
 50
180.0
 51
0.0
  0
ARC
  5
8C
102
{ACAD_REACTORS
330
A0
102
}
330
48
100
AcDbEntity
  8
1
  6
Continuous
 62
     7
100
AcDbCircle
 10
814.8236461188504
 20
-15.39183173585022
 30
0.0
 40
0.3333333333333712
100
AcDbArc
 50
180.0
 51
0.0
  0
ARC
  5
8D
102
{ACAD_REACTORS
330
A0
102
}
330
48
100
AcDbEntity
  8
1
  6
Continuous
 62
     7
100
AcDbCircle
 10
814.8920132397084
 20
-8.96888349441744
 30
0.0
 40
0.2649662124752012
100
AcDbArc
 50
0.0
 51
149.9999999999756
  0
ARC
  5
8E
102
{ACAD_REACTORS
330
A1
102
}
330
48
100
AcDbEntity
  8
1
  6
Continuous
 62
     7
100
AcDbCircle
 10
810.8236461188502
 20
-9.77760064628464
 30
0.0
 40
0.3333333333333712
100
AcDbArc
 50
0.0
 51
180.0
  0
ARC
  5
8F
102
{ACAD_REACTORS
330
A1
102
}
330
48
100
AcDbEntity
  8
1
  6
Continuous
 62
     7
100
AcDbCircle
 10
813.1569794521836
 20
-15.96875481277331
 30
0.0
 40
0.3333333333333187
100
AcDbArc
 50
240.0183606311668
 51
60.01836063114891
  0
ARC
  5
90
102
{ACAD_REACTORS
330
A2
102
}
330
48
100
AcDbEntity
  8
1
  6
Continuous
 62
     7
100
AcDbCircle
 10
809.4903127855171
 20
-10.54683141551536
 30
0.0
 40
0.3333333333331439
100
AcDbArc
 50
0.0
 51
180.0
  0
ARC
  5
91
102
{ACAD_REACTORS
330
A2
102
}
330
48
100
AcDbEntity
  8
1
  6
Continuous
 62
     7
100
AcDbCircle
 10
809.4903127855171
 20
-13.85337019738878
 30
0.0
 40
0.3333333333334849
100
AcDbArc
 50
180.0
 51
0.0
  0
ARC
  5
92
102
{ACAD_REACTORS
330
A3
102
}
330
48
100
AcDbEntity
  8
1
  6
Continuous
 62
     7
100
AcDbCircle
 10
817.4903127855171
 20
-10.54683141551536
 30
0.0
 40
0.3333333333333663
100
AcDbArc
 50
240.0183606311489
 51
60.01836063115638
  0
ARC
  5
93
102
{ACAD_REACTORS
330
A3
102
}
330
48
100
AcDbEntity
  8
1
  6
Continuous
 62
     7
100
AcDbCircle
 10
817.4903127855171
 20
-12.20010080645201
 30
0.0
 40
0.3333333333333801
100
AcDbArc
 50
270.0
 51
90.0
  0
ARC
  5
94
102
{ACAD_REACTORS
330
A3
102
}
330
48
100
AcDbEntity
  8
1
  6
Continuous
 62
     7
100
AcDbCircle
 10
817.4903127855171
 20
-13.85337019738878
 30
0.0
 40
0.3333333333333172
100
AcDbArc
 50
299.9816393688334
 51
119.9816393688416
  0
ARC
  5
95
102
{ACAD_REACTORS
330
A0
102
}
330
48
100
AcDbEntity
  8
1
  6
Continuous
 62
     7
100
AcDbCircle
 10
813.4903127855171
 20
-11.86676747311876
 30
0.0
 40
0.1666666666667045
100
AcDbArc
 50
209.9999999999596
 51
330.0000000000209
  0
ARC
  5
96
102
{ACAD_REACTORS
330
A1
102
}
330
48
100
AcDbEntity
  8
1
  6
Continuous
 62
     7
100
AcDbCircle
 10
811.1569794521836
 20
-14.43007965841932
 30
0.0
 40
0.6666666666665151
100
AcDbArc
 50
180.0000000000095
 51
240.0183606311662
  0
ARC
  5
97
330
48
100
AcDbEntity
  8
1
  6
Continuous
 62
     7
100
AcDbCircle
 10
805.1571645859572
 20
-12.20010080645201
 30
0.0
 40
0.1666666666666123
100
AcDbArc
 50
119.9816393688877
 51
240.0183606311327
  0
ARC
  5
98
330
48
100
AcDbEntity
  8
1
  6
Continuous
 62
     7
100
AcDbCircle
 10
821.823460985077
 20
-12.20010080645201
 30
0.0
 40
0.1666666666666018
100
AcDbArc
 50
299.9816393687996
 51
60.01836063118
  0
ARC
  5
99
102
{ACAD_REACTORS
330
A3
102
}
330
48
100
AcDbEntity
  8
1
  6
Continuous
 62
     7
100
AcDbCircle
 10
816.1569794521836
 20
-9.77760064628464
 30
0.0
 40
0.3333333333333709
100
AcDbArc
 50
60.01836063114937
 51
180.0
  0
ARC
  5
9A
102
{ACAD_REACTORS
330
A3
102
}
330
48
100
AcDbEntity
  8
1
  6
Continuous
 62
     7
100
AcDbCircle
 10
816.1569794521836
 20
-14.62260096661939
 30
0.0
 40
0.3333333333331439
100
AcDbArc
 50
180.0
 51
299.9816393688511
  0
MTEXT
  5
9C
330
48
100
AcDbEntity
  8
1
 62
     7
100
AcDbMText
 10
686.314012096774
 20
169.2998991935481
 30
0.0
 40
4.0
 41
0.0
 71
     5
 72
     1
  1
Diritti riservati      All rights reserved
  7
CONVERTER_11
 73
     1
 44
1.32052821128451
  0
MTEXT
  5
9D
330
48
100
AcDbEntity
  8
1
 62
     7
100
AcDbMText
 10
644.8140120967744
 20
-8.43946138569603
 30
0.0
 40
3.0
 41
0.0
 71
     4
 72
     1
  1
Date
  7
CONVERTER_11
 73
     1
 44
1.32052821128451
  0
MTEXT
  5
9E
330
48
100
AcDbEntity
  8
1
 62
     7
100
AcDbMText
 10
644.8140120967744
 20
-15.95010080645201
 30
0.0
 40
3.0
 41
0.0
 71
     4
 72
     1
  1
Sign.
  7
CONVERTER_11
 73
     1
 44
1.32052821128451
  0
MTEXT
  5
9F
330
48
100
AcDbEntity
  8
1
 62
     7
100
AcDbMText
 10
791.4903127855171
 20
-8.43946138569603
 30
0.0
 40
3.0
 41
0.0
 71
     5
 72
     1
  1
Scale
  7
CONVERTER_11
 73
     1
 44
1.32052821128451
  0
HATCH
  5
A0
330
48
100
AcDbEntity
  8
1
  6
Continuous
 62
     7
100
AcDbHatch
 10
0.0
 20
0.0
 30
0.0
210
0.0
220
0.0
230
1.0
  2
SOLID
 70
     1
 71
     1
 91
        1
 92
        1
 93
       16
 72
     2
 10
814.8920132397084
 20
-8.96888349441744
 40
0.2649662124752012
 50
210.0000000000244
 51
360.0
 73
     0
 72
     1
 10
815.1569794521836
 20
-8.96888349441744
 11
815.1569794521836
 21
-15.39183173585022
 72
     2
 10
814.8236461188504
 20
-15.39183173585022
 40
0.3333333333333712
 50
0.0
 51
180.0
 73
     0
 72
     1
 10
814.4903127855171
 20
-15.39183173585022
 11
814.4903127855171
 21
-12.20010080645201
 72
     1
 10
814.4903127855171
 20
-12.20010080645201
 11
814.4903127855171
 21
-10.46804999888317
 72
     1
 10
814.4903127855171
 20
-10.46804999888317
 11
813.6346503528144
 21
-11.95010080645201
 72
     2
 10
813.4903127855171
 20
-11.86676747311876
 40
0.1666666666667045
 50
29.9999999999791
 51
150.0000000000404
 73
     0
 72
     1
 10
813.3459752182196
 20
-11.95010080645201
 11
812.4903127855171
 21
-10.46804999888317
 72
     1
 10
812.4903127855171
 20
-10.46804999888317
 11
812.490312785517
 21
-12.20010080645207
 72
     1
 10
812.490312785517
 20
-12.20010080645207
 11
812.4903127855171
 21
-13.8525157338191
 72
     2
 10
812.1569794521836
 20
-13.8525157338191
 40
0.3333333333333712
 50
0.0
 51
180.0
 73
     0
 72
     1
 10
811.8236461188502
 20
-13.8525157338191
 11
811.8236461188502
 21
-12.20010080645201
 72
     1
 10
811.8236461188502
 20
-12.20010080645201
 11
811.8236461188502
 21
-8.96888349441744
 72
     2
 10
812.0886123313256
 20
-8.96888349441744
 40
0.2649662124752335
 50
180.0
 51
329.9999999999756
 73
     0
 72
     1
 10
812.3180798024737
 20
-8.836400388179726
 11
813.4903127855171
 21
-10.86676747311876
 72
     1
 10
813.4903127855171
 20
-10.86676747311876
 11
814.6625457685603
 21
-8.836400388179726
 97
       16
330
66
330
8A
330
65
330
67
330
8B
330
68
330
60
330
5F
330
95
330
5E
330
5D
330
69
330
8C
330
6A
330
8D
330
6B
 75
     0
 76
     1
 98
        1
 10
0.0
 20
0.0
  0
HATCH
  5
A1
330
48
100
AcDbEntity
  8
1
  6
Continuous
 62
     7
100
AcDbHatch
 10
0.0
 20
0.0
 30
0.0
210
0.0
220
0.0
230
1.0
  2
SOLID
 70
     1
 71
     1
 91
        1
 92
        1
 93
        7
 72
     2
 10
810.8236461188502
 20
-9.77760064628464
 40
0.3333333333333712
 50
0.0
 51
180.0
 73
     1
 72
     1
 10
810.4903127855171
 20
-9.77760064628464
 11
810.4903127855171
 21
-14.43007965841943
 72
     2
 10
811.1569794521836
 20
-14.43007965841932
 40
0.6666666666665151
 50
180.0000000000095
 51
240.0183606311662
 73
     1
 72
     1
 10
810.8238311498574
 20
-15.00753671578511
 11
812.9904053010205
 21
-16.25748334145621
 72
     2
 10
813.1569794521836
 20
-15.96875481277331
 40
0.3333333333333187
 50
240.0183606311668
 51
420.0183606311489
 73
     1
 72
     1
 10
813.3235536033468
 20
-15.68002628409042
 11
811.1569794521836
 21
-14.43007965841932
 72
     1
 10
811.1569794521836
 20
-14.43007965841932
 11
811.1569794521836
 21
-9.77760064628464
 97
        7
330
8E
330
6C
330
96
330
6F
330
8F
330
6E
330
6D
 75
     0
 76
     1
 98
        1
 10
0.0
 20
0.0
  0
HATCH
  5
A2
330
48
100
AcDbEntity
  8
1
  6
Continuous
 62
     7
100
AcDbHatch
 10
0.0
 20
0.0
 30
0.0
210
0.0
220
0.0
230
1.0
  2
SOLID
 70
     1
 71
     1
 91
        1
 92
        1
 93
        5
 72
     2
 10
809.4903127855171
 20
-10.54683141551536
 40
0.3333333333331439
 50
0.0
 51
180.0
 73
     1
 72
     1
 10
809.1569794521836
 20
-10.54683141551536
 11
809.1569794521836
 21
-13.85337019738878
 72
     2
 10
809.4903127855171
 20
-13.85337019738878
 40
0.3333333333334849
 50
180.0
 51
360.0
 73
     1
 72
     1
 10
809.8236461188502
 20
-13.85337019738878
 11
809.8236461188502
 21
-13.66084888918871
 72
     1
 10
809.8236461188502
 20
-13.66084888918871
 11
809.8236461188502
 21
-10.54683141551536
 97
        5
330
90
330
72
330
91
330
71
330
70
 75
     0
 76
     1
 98
        1
 10
0.0
 20
0.0
  0
HATCH
  5
A3
330
48
100
AcDbEntity
  8
1
  6
Continuous
 62
     7
100
AcDbHatch
 10
0.0
 20
0.0
 30
0.0
210
0.0
220
0.0
230
1.0
  2
SOLID
 70
     1
 71
     1
 91
        1
 92
        1
 93
       14
 72
     2
 10
816.1569794521836
 20
-9.77760064628464
 40
0.3333333333333709
 50
60.01836063114937
 51
180.0
 73
     1
 72
     1
 10
815.8236461188504
 20
-9.77760064628464
 11
815.8236461188504
 21
-14.62260096661939
 72
     2
 10
816.1569794521836
 20
-14.62260096661939
 40
0.3333333333331439
 50
180.0
 51
299.9816393688511
 73
     1
 72
     1
 10
816.3235536033468
 20
-14.91132949530228
 11
817.6568869366802
 21
-14.14209872607168
 72
     2
 10
817.4903127855171
 20
-13.85337019738878
 40
0.3333333333333172
 50
299.9816393688334
 51
479.9816393688416
 73
     1
 72
     1
 10
817.3237386343538
 20
-13.56464166870578
 11
816.4903127855171
 21
-14.04546427380407
 72
     1
 10
816.4903127855171
 20
-14.04546427380407
 11
816.490312785517
 21
-12.53343413978539
 72
     1
 10
816.490312785517
 20
-12.53343413978539
 11
817.4903127855171
 21
-12.53343413978539
 72
     2
 10
817.4903127855171
 20
-12.20010080645201
 40
0.3333333333333801
 50
270.0
 51
450.0
 73
     1
 72
     1
 10
817.4903127855171
 20
-11.86676747311876
 11
816.490312785517
 21
-11.86676747311876
 72
     1
 10
816.490312785517
 20
-11.86676747311876
 11
816.4903127855171
 21
-10.35473733910007
 72
     1
 10
816.4903127855171
 20
-10.35473733910007
 11
817.3237386343538
 21
-10.83555994419825
 72
     2
 10
817.4903127855171
 20
-10.54683141551536
 40
0.3333333333333663
 50
240.0183606311489
 51
420.0183606311564
 73
     1
 72
     1
 10
817.6568869366802
 20
-10.25810288683258
 11
816.3235536033468
 21
-9.488872117601744
 97
       14
330
92
330
74
330
75
330
76
330
93
330
77
330
78
330
79
330
94
330
7A
330
9A
330
5C
330
99
330
73
 75
     0
 76
     1
 98
        1
 10
0.0
 20
0.0
  0
ENDBLK
  5
4A
330
48
100
AcDbEntity
  8
0
100
AcDbBlockEnd
  0
BLOCK
  5
4D
330
4B
100
AcDbEntity
  8
0
100
AcDbBlockBegin
  2
A4_oriz
 70
     0
 10
1663.628024193549
 20
-49.40020161290403
 30
0.0
  3
A4_oriz
  1

  0
INSERT
  5
4C
330
4B
100
AcDbEntity
  8
1
100
AcDbBlockReference
  2
_formato_A4
 10
1663.628024193549
 20
-49.40020161290402
 30
0.0
 41
2.0
 42
2.0
 43
2.0
  0
ENDBLK
  5
4E
330
4B
100
AcDbEntity
  8
0
100
AcDbBlockEnd
  0
BLOCK
  5
249
330
241
100
AcDbEntity
  8
0
100
AcDbBlockBegin
  2
*D3
 70
     1
 10
0.0
 20
0.0
 30
0.0
  3
*D3
  1

  0
LINE
  5
242
330
241
100
AcDbEntity
  8
1
  6
Continuous
 62
     2
100
AcDbLine
 10
1359.828224523702
 20
255.447635782895
 30
0.0
 11
1231.26495661533
 21
255.447635782895
 31
0.0
  0
LINE
  5
243
330
241
100
AcDbEntity
  8
1
  6
Continuous
 62
     2
100
AcDbLine
 10
1231.26495661533
 20
199.4671709695897
 30
0.0
 11
1231.26495661533
 21
257.447635782895
 31
0.0
  0
LINE
  5
244
330
241
100
AcDbEntity
  8
1
  6
Continuous
 62
     2
100
AcDbLine
 10
1359.828224523702
 20
199.4671709695897
 30
0.0
 11
1359.828224523702
 21
257.447635782895
 31
0.0
  0
SOLID
  5
245
330
241
100
AcDbEntity
  8
1
 62
     2
100
AcDbTrace
 10
1353.828224523702
 20
254.6577207973706
 30
0.0
 11
1353.828224523702
 21
256.2375507684194
 31
0.0
 12
1359.828224523702
 22
255.447635782895
 32
0.0
 13
1359.828224523702
 23
255.447635782895
 33
0.0
  0
SOLID
  5
246
330
241
100
AcDbEntity
  8
1
 62
     2
100
AcDbTrace
 10
1237.26495661533
 20
256.2375507684194
 30
0.0
 11
1237.26495661533
 21
254.6577207973706
 31
0.0
 12
1231.26495661533
 22
255.447635782895
 32
0.0
 13
1231.26495661533
 23
255.447635782895
 33
0.0
  0
MTEXT
  5
248
330
241
100
AcDbEntity
  8
1
 62
     4
100
AcDbMText
 10
1289.246590569516
 20
259.447635782895
 30
0.0
 40
6.0
 41
0.0
 71
     7
 72
     1
  1
130
  7
CONVERTER_13
 11
0.9999999999970619
 21
2.424068405545306E-6
 31
0.0
 73
     1
 44
0.60024009603842
  0
ENDBLK
  5
24A
330
241
100
AcDbEntity
  8
0
100
AcDbBlockEnd
  0
BLOCK
  5
254
330
24D
100
AcDbEntity
  8
0
100
AcDbBlockBegin
  2
*D4
 70
     1
 10
0.0
 20
0.0
 30
0.0
  3
*D4
  1

  0
LINE
  5
24E
330
24D
100
AcDbEntity
  8
1
  6
Continuous
 62
     2
100
AcDbLine
 10
1217.041590569517
 20
127.6671709695904
 30
0.0
 11
1217.041590569517
 21
208.6663416487259
 31
0.0
  0
LINE
  5
24F
330
24D
100
AcDbEntity
  8
1
  6
Continuous
 62
     2
100
AcDbLine
 10
1236.041590569517
 20
127.6671709695904
 30
0.0
 11
1215.041590569517
 21
127.6671709695904
 31
0.0
  0
LINE
  5
250
330
24D
100
AcDbEntity
  8
1
  6
Continuous
 62
     2
100
AcDbLine
 10
1243.658530164149
 20
208.6663416487259
 30
0.0
 11
1215.041590569517
 21
208.6663416487259
 31
0.0
  0
SOLID
  5
251
330
24D
100
AcDbEntity
  8
1
 62
     2
100
AcDbTrace
 10
1216.251675583993
 20
133.6671709695904
 30
0.0
 11
1217.831505555041
 21
133.6671709695904
 31
0.0
 12
1217.041590569517
 22
127.6671709695904
 32
0.0
 13
1217.041590569517
 23
127.6671709695904
 33
0.0
  0
SOLID
  5
252
330
24D
100
AcDbEntity
  8
1
 62
     2
100
AcDbTrace
 10
1217.831505555041
 20
202.6663416487259
 30
0.0
 11
1216.251675583993
 21
202.6663416487259
 31
0.0
 12
1217.041590569517
 22
208.6663416487259
 32
0.0
 13
1217.041590569517
 23
208.6663416487259
 33
0.0
  0
MTEXT
  5
253
330
24D
100
AcDbEntity
  8
1
 62
     4
100
AcDbMText
 10
1213.041590569517
 20
164.2667563091582
 30
0.0
 40
6.0
 41
0.0
 71
     7
 72
     1
  1
81
  7
CONVERTER_13
 11
0.0
 21
1.0
 31
0.0
 73
     1
 44
0.60024009603842
  0
ENDBLK
  5
255
330
24D
100
AcDbEntity
  8
0
100
AcDbBlockEnd
  0
BLOCK
  5
25F
330
258
100
AcDbEntity
  8
0
100
AcDbBlockBegin
  2
*D5
 70
     1
 10
0.0
 20
0.0
 30
0.0
  3
*D5
  1

  0
LINE
  5
259
330
258
100
AcDbEntity
  8
1
  6
Continuous
 62
     2
100
AcDbLine
 10
1461.891589750391
 20
107.6671709695857
 30
0.0
 11
1506.891589750391
 21
107.6671709695857
 31
0.0
  0
LINE
  5
25A
330
258
100
AcDbEntity
  8
1
  6
Continuous
 62
     2
100
AcDbLine
 10
1461.891589750391
 20
124.318454772297
 30
0.0
 11
1461.891589750391
 21
105.6671709695857
 31
0.0
  0
LINE
  5
25B
330
258
100
AcDbEntity
  8
1
  6
Continuous
 62
     2
100
AcDbLine
 10
1506.891589750391
 20
124.318454772297
 30
0.0
 11
1506.891589750391
 21
105.6671709695857
 31
0.0
  0
SOLID
  5
25C
330
258
100
AcDbEntity
  8
1
 62
     2
100
AcDbTrace
 10
1467.891589750391
 20
108.4570859551101
 30
0.0
 11
1467.891589750391
 21
106.8772559840613
 31
0.0
 12
1461.891589750391
 22
107.6671709695857
 32
0.0
 13
1461.891589750391
 23
107.6671709695857
 33
0.0
  0
SOLID
  5
25D
330
258
100
AcDbEntity
  8
1
 62
     2
100
AcDbTrace
 10
1500.891589750391
 20
106.8772559840613
 30
0.0
 11
1500.891589750391
 21
108.4570859551101
 31
0.0
 12
1506.891589750391
 22
107.6671709695857
 32
0.0
 13
1506.891589750391
 23
107.6671709695857
 33
0.0
  0
MTEXT
  5
25E
330
258
100
AcDbEntity
  8
1
 62
     4
100
AcDbMText
 10
1479.891589750391
 20
111.6671709695857
 30
0.0
 40
6.0
 41
0.0
 71
     7
 72
     1
  1
45
  7
CONVERTER_13
 11
0.9999999999970619
 21
2.424068405545306E-6
 31
0.0
 73
     1
 44
0.60024009603842
  0
ENDBLK
  5
260
330
258
100
AcDbEntity
  8
0
100
AcDbBlockEnd
  0
BLOCK
  5
26A
330
263
100
AcDbEntity
  8
0
100
AcDbBlockBegin
  2
*D6
 70
     1
 10
0.0
 20
0.0
 30
0.0
  3
*D6
  1

  0
LINE
  5
264
330
263
100
AcDbEntity
  8
1
  6
Continuous
 62
     2
100
AcDbLine
 10
1455.891589750391
 20
87.66717096958567
 30
0.0
 11
1512.891589750391
 21
87.66717096958567
 31
0.0
  0
LINE
  5
265
330
263
100
AcDbEntity
  8
1
  6
Continuous
 62
     2
100
AcDbLine
 10
1455.891589750391
 20
126.6671709695853
 30
0.0
 11
1455.891589750391
 21
85.66717096958567
 31
0.0
  0
LINE
  5
266
330
263
100
AcDbEntity
  8
1
  6
Continuous
 62
     2
100
AcDbLine
 10
1512.891589750391
 20
126.6671709695917
 30
0.0
 11
1512.891589750391
 21
85.66717096958567
 31
0.0
  0
SOLID
  5
267
330
263
100
AcDbEntity
  8
1
 62
     2
100
AcDbTrace
 10
1461.891589750391
 20
88.45708595511005
 30
0.0
 11
1461.891589750391
 21
86.87725598406129
 31
0.0
 12
1455.891589750391
 22
87.66717096958567
 32
0.0
 13
1455.891589750391
 23
87.66717096958567
 33
0.0
  0
SOLID
  5
268
330
263
100
AcDbEntity
  8
1
 62
     2
100
AcDbTrace
 10
1506.891589750391
 20
86.87725598406129
 30
0.0
 11
1506.891589750391
 21
88.45708595511005
 31
0.0
 12
1512.891589750391
 22
87.66717096958567
 32
0.0
 13
1512.891589750391
 23
87.66717096958567
 33
0.0
  0
MTEXT
  5
269
330
263
100
AcDbEntity
  8
1
 62
     4
100
AcDbMText
 10
1479.891589750391
 20
91.66717096958567
 30
0.0
 40
6.0
 41
0.0
 71
     7
 72
     1
  1
57
  7
CONVERTER_13
 11
0.9999999999970619
 21
2.424068405545306E-6
 31
0.0
 73
     1
 44
0.60024009603842
  0
ENDBLK
  5
26B
330
263
100
AcDbEntity
  8
0
100
AcDbBlockEnd
  0
BLOCK
  5
275
330
26E
100
AcDbEntity
  8
0
100
AcDbBlockBegin
  2
*D7
 70
     1
 10
0.0
 20
0.0
 30
0.0
  3
*D7
  1

  0
LINE
  5
26F
330
26E
100
AcDbEntity
  8
1
  6
Continuous
 62
     2
100
AcDbLine
 10
1455.391589750381
 20
243.467170969589
 30
0.0
 11
1513.391589750383
 21
243.467170969589
 31
0.0
  0
LINE
  5
270
330
26E
100
AcDbEntity
  8
1
  6
Continuous
 62
     2
100
AcDbLine
 10
1455.391589750381
 20
224.4671709695898
 30
0.0
 11
1455.391589750381
 21
245.467170969589
 31
0.0
  0
LINE
  5
271
330
26E
100
AcDbEntity
  8
1
  6
Continuous
 62
     2
100
AcDbLine
 10
1513.391589750383
 20
224.4671709695964
 30
0.0
 11
1513.391589750383
 21
245.467170969589
 31
0.0
  0
SOLID
  5
272
330
26E
100
AcDbEntity
  8
1
 62
     2
100
AcDbTrace
 10
1461.391589750381
 20
244.2570859551134
 30
0.0
 11
1461.391589750381
 21
242.6772559840646
 31
0.0
 12
1455.391589750381
 22
243.467170969589
 32
0.0
 13
1455.391589750381
 23
243.467170969589
 33
0.0
  0
SOLID
  5
273
330
26E
100
AcDbEntity
  8
1
 62
     2
100
AcDbTrace
 10
1507.391589750383
 20
242.6772559840646
 30
0.0
 11
1507.391589750383
 21
244.2570859551134
 31
0.0
 12
1513.391589750383
 22
243.467170969589
 32
0.0
 13
1513.391589750383
 23
243.467170969589
 33
0.0
  0
MTEXT
  5
274
330
26E
100
AcDbEntity
  8
1
 62
     4
100
AcDbMText
 10
1479.891589750382
 20
247.467170969589
 30
0.0
 40
6.0
 41
0.0
 71
     7
 72
     1
  1
58
  7
CONVERTER_13
 11
0.9999999999970619
 21
2.424068405545306E-6
 31
0.0
 73
     1
 44
0.60024009603842
  0
ENDBLK
  5
276
330
26E
100
AcDbEntity
  8
0
100
AcDbBlockEnd
  0
BLOCK
  5
282
330
279
100
AcDbEntity
  8
0
100
AcDbBlockBegin
  2
*D8
 70
     1
 10
0.0
 20
0.0
 30
0.0
  3
*D8
  1

  0
LINE
  5
27A
330
279
100
AcDbEntity
  8
1
  6
Continuous
 62
     2
100
AcDbLine
 10
1532.89158975039
 20
143.6671709695917
 30
0.0
 11
1532.89158975039
 21
131.6671709695917
 31
0.0
  0
LINE
  5
27B
330
279
100
AcDbEntity
  8
1
  6
Continuous
 62
     2
100
AcDbLine
 10
1532.89158975039
 20
131.6671709695917
 30
0.0
 11
1532.89158975039
 21
127.6671709695917
 31
0.0
  0
LINE
  5
27C
330
279
100
AcDbEntity
  8
1
  6
Continuous
 62
     2
100
AcDbLine
 10
1532.89158975039
 20
127.6671709695917
 30
0.0
 11
1532.89158975039
 21
115.6671709695917
 31
0.0
  0
LINE
  5
27D
330
279
100
AcDbEntity
  8
1
  6
Continuous
 62
     2
100
AcDbLine
 10
1513.89158975039
 20
131.6671709695917
 30
0.0
 11
1534.89158975039
 21
131.6671709695917
 31
0.0
  0
LINE
  5
27E
330
279
100
AcDbEntity
  8
1
  6
Continuous
 62
     2
100
AcDbLine
 10
1513.891589750391
 20
127.6671709695917
 30
0.0
 11
1534.89158975039
 21
127.6671709695917
 31
0.0
  0
SOLID
  5
27F
330
279
100
AcDbEntity
  8
1
 62
     2
100
AcDbTrace
 10
1532.101674764866
 20
137.6671709695917
 30
0.0
 11
1533.681504735914
 21
137.6671709695917
 31
0.0
 12
1532.89158975039
 22
131.6671709695917
 32
0.0
 13
1532.89158975039
 23
131.6671709695917
 33
0.0
  0
SOLID
  5
280
330
279
100
AcDbEntity
  8
1
 62
     2
100
AcDbTrace
 10
1533.681504735914
 20
121.6671709695917
 30
0.0
 11
1532.101674764866
 21
121.6671709695917
 31
0.0
 12
1532.89158975039
 22
127.6671709695917
 32
0.0
 13
1532.89158975039
 23
127.6671709695917
 33
0.0
  0
MTEXT
  5
281
330
279
100
AcDbEntity
  8
1
 62
     4
100
AcDbMText
 10
1528.89158975039
 20
139.5726685490824
 30
0.0
 40
6.0
 41
0.0
 71
     7
 72
     1
  1
4
  7
CONVERTER_13
 11
0.0
 21
1.0
 31
0.0
 73
     1
 44
0.60024009603842
  0
ENDBLK
  5
283
330
279
100
AcDbEntity
  8
0
100
AcDbBlockEnd
  0
BLOCK
  5
28D
330
286
100
AcDbEntity
  8
0
100
AcDbBlockBegin
  2
*D9
 70
     1
 10
0.0
 20
0.0
 30
0.0
  3
*D9
  1

  0
LINE
  5
287
330
286
100
AcDbEntity
  8
1
  6
Continuous
 62
     2
100
AcDbLine
 10
1374.041590569517
 20
164.1671709695885
 30
0.0
 11
1374.041590569517
 21
132.1671709695885
 31
0.0
  0
LINE
  5
288
330
286
100
AcDbEntity
  8
1
  6
Continuous
 62
     2
100
AcDbLine
 10
1355.041590569517
 20
164.1671709695885
 30
0.0
 11
1376.041590569517
 21
164.1671709695885
 31
0.0
  0
LINE
  5
289
330
286
100
AcDbEntity
  8
1
  6
Continuous
 62
     2
100
AcDbLine
 10
1355.041590569517
 20
132.1671709695885
 30
0.0
 11
1376.041590569517
 21
132.1671709695885
 31
0.0
  0
SOLID
  5
28A
330
286
100
AcDbEntity
  8
1
 62
     2
100
AcDbTrace
 10
1374.831505555041
 20
158.1671709695885
 30
0.0
 11
1373.251675583993
 21
158.1671709695885
 31
0.0
 12
1374.041590569517
 22
164.1671709695885
 32
0.0
 13
1374.041590569517
 23
164.1671709695885
 33
0.0
  0
SOLID
  5
28B
330
286
100
AcDbEntity
  8
1
 62
     2
100
AcDbTrace
 10
1373.251675583993
 20
138.1671709695885
 30
0.0
 11
1374.831505555041
 21
138.1671709695885
 31
0.0
 12
1374.041590569517
 22
132.1671709695885
 32
0.0
 13
1374.041590569517
 23
132.1671709695885
 33
0.0
  0
MTEXT
  5
28C
330
286
100
AcDbEntity
  8
1
 62
     4
100
AcDbMText
 10
1370.041590569517
 20
142.6471709695885
 30
0.0
 40
6.0
 41
0.0
 71
     7
 72
     1
  1
\C4;M\C4;32
  7
CONVERTER_13
 11
0.0
 21
1.0
 31
0.0
 73
     1
 44
0.60024009603842
  0
ENDBLK
  5
28E
330
286
100
AcDbEntity
  8
0
100
AcDbBlockEnd
  0
BLOCK
  5
298
330
291
100
AcDbEntity
  8
0
100
AcDbBlockBegin
  2
*D10
 70
     1
 10
0.0
 20
0.0
 30
0.0
  3
*D10
  1

  0
LINE
  5
292
330
291
100
AcDbEntity
  8
1
  6
Continuous
 62
     2
100
AcDbLine
 10
1243.041590569517
 20
108.1671709695906
 30
0.0
 11
1348.041590569517
 21
108.1671709695906
 31
0.0
  0
LINE
  5
293
330
291
100
AcDbEntity
  8
1
  6
Continuous
 62
     2
100
AcDbLine
 10
1243.041590569517
 20
124.318454772297
 30
0.0
 11
1243.041590569517
 21
106.1671709695906
 31
0.0
  0
LINE
  5
294
330
291
100
AcDbEntity
  8
1
  6
Continuous
 62
     2
100
AcDbLine
 10
1348.041590569517
 20
124.318454772297
 30
0.0
 11
1348.041590569517
 21
106.1671709695906
 31
0.0
  0
SOLID
  5
295
330
291
100
AcDbEntity
  8
1
 62
     2
100
AcDbTrace
 10
1249.041590569517
 20
108.957085955115
 30
0.0
 11
1249.041590569517
 21
107.3772559840662
 31
0.0
 12
1243.041590569517
 22
108.1671709695906
 32
0.0
 13
1243.041590569517
 23
108.1671709695906
 33
0.0
  0
SOLID
  5
296
330
291
100
AcDbEntity
  8
1
 62
     2
100
AcDbTrace
 10
1342.041590569517
 20
107.3772559840662
 30
0.0
 11
1342.041590569517
 21
108.957085955115
 31
0.0
 12
1348.041590569517
 22
108.1671709695906
 32
0.0
 13
1348.041590569517
 23
108.1671709695906
 33
0.0
  0
MTEXT
  5
297
330
291
100
AcDbEntity
  8
1
 62
     4
100
AcDbMText
 10
1289.241590569517
 20
112.1671709695906
 30
0.0
 40
6.0
 41
0.0
 71
     7
 72
     1
  1
105
  7
CONVERTER_13
 11
0.9999999999970619
 21
2.424068405545306E-6
 31
0.0
 73
     1
 44
0.60024009603842
  0
ENDBLK
  5
299
330
291
100
AcDbEntity
  8
0
100
AcDbBlockEnd
  0
BLOCK
  5
2A3
330
29C
100
AcDbEntity
  8
0
100
AcDbBlockBegin
  2
*D11
 70
     1
 10
0.0
 20
0.0
 30
0.0
  3
*D11
  1

  0
LINE
  5
29D
330
29C
100
AcDbEntity
  8
1
  6
Continuous
 62
     2
100
AcDbLine
 10
1237.041590569517
 20
88.16717096959059
 30
0.0
 11
1354.041590569517
 21
88.16717096959059
 31
0.0
  0
LINE
  5
29E
330
29C
100
AcDbEntity
  8
1
  6
Continuous
 62
     2
100
AcDbLine
 10
1237.041590569517
 20
126.6671709695904
 30
0.0
 11
1237.041590569517
 21
86.16717096959059
 31
0.0
  0
LINE
  5
29F
330
29C
100
AcDbEntity
  8
1
  6
Continuous
 62
     2
100
AcDbLine
 10
1354.041590569517
 20
126.6671709695904
 30
0.0
 11
1354.041590569517
 21
86.16717096959059
 31
0.0
  0
SOLID
  5
2A0
330
29C
100
AcDbEntity
  8
1
 62
     2
100
AcDbTrace
 10
1243.041590569517
 20
88.95708595511496
 30
0.0
 11
1243.041590569517
 21
87.37725598406621
 31
0.0
 12
1237.041590569517
 22
88.16717096959059
 32
0.0
 13
1237.041590569517
 23
88.16717096959059
 33
0.0
  0
SOLID
  5
2A1
330
29C
100
AcDbEntity
  8
1
 62
     2
100
AcDbTrace
 10
1348.041590569517
 20
87.37725598406621
 30
0.0
 11
1348.041590569517
 21
88.95708595511496
 31
0.0
 12
1354.041590569517
 22
88.16717096959059
 32
0.0
 13
1354.041590569517
 23
88.16717096959059
 33
0.0
  0
MTEXT
  5
2A2
330
29C
100
AcDbEntity
  8
1
 62
     4
100
AcDbMText
 10
1290.141590569517
 20
92.16717096959059
 30
0.0
 40
6.0
 41
0.0
 71
     7
 72
     1
  1
117
  7
CONVERTER_13
 11
0.9999999999970619
 21
2.424068405545306E-6
 31
0.0
 73
     1
 44
0.60024009603842
  0
ENDBLK
  5
2A4
330
29C
100
AcDbEntity
  8
0
100
AcDbBlockEnd
  0
ENDSEC
  0
SECTION
  2
ENTITIES
  0
INSERT
  5
4F
330
1F
100
AcDbEntity
  8
0
100
AcDbBlockReference
  2
A4_oriz
 10
1663.628024193549
 20
-49.40020161290403
 30
0.0
  0
LINE
  5
A4
330
1F
100
AcDbEntity
  8
1
  6
DOT_CENTER
 62
     2
100
AcDbLine
 10
1319.541590569517
 20
206.0771709695943
 30
0.0
 11
1319.541590569517
 21
190.8571709695945
 31
0.0
  0
LINE
  5
A5
330
1F
100
AcDbEntity
  8
1
  6
DOT_CENTER
 62
     2
100
AcDbLine
 10
1327.151590569517
 20
198.4671709695944
 30
0.0
 11
1311.931590569517
 21
198.4671709695944
 31
0.0
  0
LINE
  5
A6
330
1F
100
AcDbEntity
  8
1
  6
DOT_CENTER
 62
     2
100
AcDbLine
 10
1271.551590569514
 20
206.0771709695928
 30
0.0
 11
1271.551590569514
 21
190.8571709695866
 31
0.0
  0
LINE
  5
A7
330
1F
100
AcDbEntity
  8
1
  6
DOT_CENTER
 62
     2
100
AcDbLine
 10
1279.161590569517
 20
198.4671709695897
 30
0.0
 11
1263.941590569511
 21
198.4671709695897
 31
0.0
  0
LINE
  5
A8
330
1F
100
AcDbEntity
  8
1
  6
DOT_CENTER
 62
     2
100
AcDbLine
 10
1484.391589750388
 20
169.6921709695886
 30
0.0
 11
1484.391589750388
 21
126.6421709695886
 31
0.0
  0
LINE
  5
A9
330
1F
100
AcDbEntity
  8
1
  6
DOT_CENTER
 62
     2
100
AcDbLine
 10
1505.916589750388
 20
148.1671709695886
 30
0.0
 11
1462.866589750388
 21
148.1671709695886
 31
0.0
  0
LINE
  5
AA
330
1F
100
AcDbEntity
  8
0
  6
Continuous
 62
     7
100
AcDbLine
 10
1244.658530164149
 20
208.6663416487259
 30
0.0
 11
1243.551590569516
 21
209.4671709695904
 31
0.0
  0
LINE
  5
AB
330
1F
100
AcDbEntity
  8
0
  6
Continuous
 62
     7
100
AcDbLine
 10
1346.434650974883
 20
208.6663416487259
 30
0.0
 11
1347.541590569518
 21
209.4671709695905
 31
0.0
  0
LINE
  5
AC
330
1F
100
AcDbEntity
  8
1
  6
DOT_CENTER
 62
     2
100
AcDbLine
 10
1506.891589750391
 20
133.4929677453053
 30
0.0
 11
1506.891589750391
 21
125.318454772297
 31
0.0
  0
LINE
  5
AD
330
1F
100
AcDbEntity
  8
1
  6
DOT_CENTER
 62
     2
100
AcDbLine
 10
1461.891589750391
 20
133.4929677453053
 30
0.0
 11
1461.891589750391
 21
125.318454772297
 31
0.0
  0
LINE
  5
AE
330
1F
100
AcDbEntity
  8
0
  6
Continuous
 62
     7
100
AcDbLine
 10
1354.041590569517
 20
132.1671709695885
 30
0.0
 11
1354.041590569517
 21
131.6671709695904
 31
0.0
  0
LINE
  5
AF
330
1F
100
AcDbEntity
  8
0
  6
Continuous
 62
     7
100
AcDbLine
 10
1354.041590569517
 20
164.1671709695885
 30
0.0
 11
1354.041590569517
 21
132.1671709695885
 31
0.0
  0
LINE
  5
B0
330
1F
100
AcDbEntity
  8
0
  6
Continuous
 62
     7
100
AcDbLine
 10
1354.041590569517
 20
165.9171709695874
 30
0.0
 11
1354.041590569517
 21
164.1671709695885
 31
0.0
  0
LINE
  5
B1
330
1F
100
AcDbEntity
  8
1
  6
DOT_CENTER
 62
     2
100
AcDbLine
 10
1243.041590569517
 20
133.4929677453053
 30
0.0
 11
1243.041590569517
 21
125.318454772297
 31
0.0
  0
LINE
  5
B2
330
1F
100
AcDbEntity
  8
1
  6
DOT_CENTER
 62
     2
100
AcDbLine
 10
1348.041590569517
 20
133.4929677453053
 30
0.0
 11
1348.041590569517
 21
125.318454772297
 31
0.0
  0
LINE
  5
B3
330
1F
100
AcDbEntity
  8
0
  6
Continuous
 62
     7
100
AcDbLine
 10
1247.191590569517
 20
203.1663416487259
 30
0.0
 11
1247.191590569517
 21
206.8337673565292
 31
0.0
  0
LINE
  5
B4
330
1F
100
AcDbEntity
  8
0
  6
Continuous
 62
     7
100
AcDbLine
 10
1247.191590569517
 20
165.9171709695874
 30
0.0
 11
1247.191590569517
 21
203.1663416487259
 31
0.0
  0
LINE
  5
B5
330
1F
100
AcDbEntity
  8
0
  6
Continuous
 62
     7
100
AcDbLine
 10
1252.260858914937
 20
203.166341648726
 30
0.0
 11
1247.191590569517
 21
206.8337673565292
 31
0.0
  0
LINE
  5
B6
330
1F
100
AcDbEntity
  8
0
  6
Continuous
 62
     7
100
AcDbLine
 10
1338.832322224094
 20
203.1663416487259
 30
0.0
 11
1343.891590569517
 21
206.8265327312193
 31
0.0
  0
LINE
  5
B7
330
1F
100
AcDbEntity
  8
0
  6
Continuous
 62
     7
100
AcDbLine
 10
1321.40621191493
 20
208.6663416487259
 30
0.0
 11
1320.85995471542
 21
210.1671709695935
 31
0.0
  0
LINE
  5
B8
330
1F
100
AcDbEntity
  8
0
  6
Continuous
 62
     7
100
AcDbLine
 10
1269.686969224106
 20
208.6663416487259
 30
0.0
 11
1270.233226423614
 21
210.1671709695935
 31
0.0
  0
LINE
  5
B9
330
1F
100
AcDbEntity
  8
0
  6
Continuous
 62
     7
100
AcDbLine
 10
1462.641589750386
 20
195.317170969586
 30
0.0
 11
1460.891589750386
 21
195.3171709695859
 31
0.0
  0
LINE
  5
BA
330
1F
100
AcDbEntity
  8
0
  6
Continuous
 62
     7
100
AcDbLine
 10
1462.641589750384
 20
200.1171709695859
 30
0.0
 11
1460.891589750384
 21
200.1171709695859
 31
0.0
  0
LINE
  5
BB
330
1F
100
AcDbEntity
  8
0
  6
Continuous
 62
     7
100
AcDbLine
 10
1460.891589750386
 20
190.9671709695943
 30
0.0
 11
1460.891589750384
 21
200.8671709695942
 31
0.0
  0
LINE
  5
BC
330
1F
100
AcDbEntity
  8
0
  6
Continuous
 62
     7
100
AcDbLine
 10
1513.391589750383
 20
209.4671709695962
 30
0.0
 11
1513.391589750386
 21
190.9671709696002
 31
0.0
  0
LINE
  5
BD
330
1F
100
AcDbEntity
  8
0
  6
Continuous
 62
     7
100
AcDbLine
 10
1455.391589750381
 20
223.4671709695898
 30
0.0
 11
1455.391589750381
 21
223.3990474507806
 31
0.0
  0
LINE
  5
BE
330
1F
100
AcDbEntity
  8
0
  6
Continuous
 62
     7
100
AcDbLine
 10
1455.391589750386
 20
190.9671709695936
 30
0.0
 11
1460.891589750386
 21
190.9671709695943
 31
0.0
  0
LINE
  5
BF
330
1F
100
AcDbEntity
  8
0
  6
Continuous
 62
     7
100
AcDbLine
 10
1462.64158975039
 20
131.6671709695861
 30
0.0
 11
1462.641589750383
 21
203.1663416487259
 31
0.0
  0
LINE
  5
C0
330
1F
100
AcDbEntity
  8
0
  6
Continuous
 62
     7
100
AcDbLine
 10
1462.64158975039
 20
131.6671709695861
 30
0.0
 11
1455.89158975039
 21
131.6671709695853
 31
0.0
  0
LINE
  5
C1
330
1F
100
AcDbEntity
  8
0
  6
Continuous
 62
     7
100
AcDbLine
 10
1502.141589750388
 20
148.1671709695906
 30
0.0
 11
1502.14158975039
 21
131.6671709695906
 31
0.0
  0
LINE
  5
C2
330
1F
100
AcDbEntity
  8
0
  6
Continuous
 62
     7
100
AcDbLine
 10
1512.89158975039
 20
131.6671709695917
 30
0.0
 11
1506.14158975039
 21
131.6671709695911
 31
0.0
  0
LINE
  5
C3
330
1F
100
AcDbEntity
  8
0
  6
Continuous
 62
     7
100
AcDbLine
 10
1455.891589750391
 20
127.6671709695853
 30
0.0
 11
1512.891589750391
 21
127.6671709695917
 31
0.0
  0
LINE
  5
C4
330
1F
100
AcDbEntity
  8
0
  6
Continuous
 62
     7
100
AcDbLine
 10
1512.891589750391
 20
127.6671709695917
 30
0.0
 11
1512.89158975039
 21
131.6671709695917
 31
0.0
  0
LINE
  5
C5
330
1F
100
AcDbEntity
  8
0
  6
Continuous
 62
     7
100
AcDbLine
 10
1513.391589750386
 20
190.9671709696002
 30
0.0
 11
1507.891589750386
 21
190.9671709695995
 31
0.0
  0
LINE
  5
C6
330
1F
100
AcDbEntity
  8
0
  6
Continuous
 62
     7
100
AcDbLine
 10
1506.141589750384
 20
200.1171709695912
 30
0.0
 11
1507.891589750384
 21
200.1171709695913
 31
0.0
  0
LINE
  5
C7
330
1F
100
AcDbEntity
  8
0
  6
Continuous
 62
     7
100
AcDbLine
 10
1506.141589750386
 20
195.3171709695912
 30
0.0
 11
1507.891589750386
 21
195.3171709695912
 31
0.0
  0
LINE
  5
C8
330
1F
100
AcDbEntity
  8
0
  6
Continuous
 62
     7
100
AcDbLine
 10
1507.891589750384
 20
200.8671709695996
 30
0.0
 11
1507.891589750386
 21
190.9671709695995
 31
0.0
  0
LINE
  5
C9
330
1F
100
AcDbEntity
  8
0
  6
Continuous
 62
     7
100
AcDbLine
 10
1507.891589750383
 20
204.402933252168
 30
0.0
 11
1507.891589750384
 21
200.8671709695996
 31
0.0
  0
LINE
  5
CA
330
1F
100
AcDbEntity
  8
0
  6
Continuous
 62
     7
100
AcDbLine
 10
1506.14158975039
 20
131.6671709695911
 30
0.0
 11
1506.141589750383
 21
203.1663416487259
 31
0.0
  0
LINE
  5
CB
330
1F
100
AcDbEntity
  8
0
  6
Continuous
 62
     7
100
AcDbLine
 10
1462.641589750383
 20
203.1663416487259
 30
0.0
 11
1506.141589750383
 21
203.1663416487259
 31
0.0
  0
LINE
  5
CC
330
1F
100
AcDbEntity
  8
0
  6
Continuous
 62
     7
100
AcDbLine
 10
1455.891589750391
 20
127.6671709695853
 30
0.0
 11
1455.89158975039
 21
131.6671709695853
 31
0.0
  0
LINE
  5
CD
330
1F
100
AcDbEntity
  8
0
  6
Continuous
 62
     7
100
AcDbLine
 10
1466.64158975039
 20
131.6671709695866
 30
0.0
 11
1466.641589750388
 21
148.1671709695865
 31
0.0
  0
LINE
  5
CE
330
1F
100
AcDbEntity
  8
0
  6
Continuous
 62
     7
100
AcDbLine
 10
1506.14158975039
 20
131.6671709695911
 30
0.0
 11
1502.14158975039
 21
131.6671709695906
 31
0.0
  0
LINE
  5
CF
330
1F
100
AcDbEntity
  8
0
  6
Continuous
 62
     7
100
AcDbLine
 10
1462.64158975039
 20
131.6671709695861
 30
0.0
 11
1466.64158975039
 21
131.6671709695866
 31
0.0
  0
LINE
  5
D0
330
1F
100
AcDbEntity
  8
0
  6
Continuous
 62
     7
100
AcDbLine
 10
1455.391589750381
 20
223.4671709695898
 30
0.0
 11
1513.391589750382
 21
223.4671709695964
 31
0.0
  0
LINE
  5
D1
330
1F
100
AcDbEntity
  8
0
  6
Continuous
 62
     7
100
AcDbLine
 10
1513.391589750382
 20
223.4671709695964
 30
0.0
 11
1513.391589750382
 21
223.3990474507872
 31
0.0
  0
LINE
  5
D2
330
1F
100
AcDbEntity
  8
0
  6
Continuous
 62
     7
100
AcDbLine
 10
1513.391589750382
 20
223.3990474507872
 30
0.0
 11
1513.391589750382
 21
223.1960028411644
 31
0.0
  0
LINE
  5
D3
330
1F
100
AcDbEntity
  8
0
  6
Continuous
 62
     7
100
AcDbLine
 10
1455.391589750381
 20
223.3990474507806
 30
0.0
 11
1455.391589750381
 21
223.1960028411577
 31
0.0
  0
LINE
  5
D4
330
1F
100
AcDbEntity
  8
0
  6
Continuous
 62
     7
100
AcDbLine
 10
1455.391589750381
 20
221.8562226129277
 30
0.0
 11
1455.391589750381
 21
223.1960028411577
 31
0.0
  0
LINE
  5
D5
330
1F
100
AcDbEntity
  8
0
  6
Continuous
 62
     7
100
AcDbLine
 10
1513.391589750382
 20
221.8562226129277
 30
0.0
 11
1513.391589750382
 21
223.1960028411644
 31
0.0
  0
LINE
  5
D6
330
1F
100
AcDbEntity
  8
0
  6
Continuous
 62
     7
100
AcDbLine
 10
1455.391589750386
 20
190.9671709695936
 30
0.0
 11
1455.391589750383
 21
209.4671709695896
 31
0.0
  0
LINE
  5
D7
330
1F
100
AcDbEntity
  8
0
  6
Continuous
 62
     7
100
AcDbLine
 10
1506.141589750383
 20
203.1663416487259
 30
0.0
 11
1506.140435364413
 21
206.3766207129494
 31
0.0
  0
LINE
  5
D8
330
1F
100
AcDbEntity
  8
0
  6
Continuous
 62
     7
100
AcDbLine
 10
1462.641589750383
 20
203.1663416487259
 30
0.0
 11
1462.641589750384
 21
206.3762371895455
 31
0.0
  0
LINE
  5
D9
330
1F
100
AcDbEntity
  8
0
  6
Continuous
 62
     7
100
AcDbLine
 10
1504.891589750383
 20
206.573320845349
 30
0.0
 11
1463.891589750383
 21
206.5733208453442
 31
0.0
  0
LINE
  5
DA
330
1F
100
AcDbEntity
  8
0
  6
Continuous
 62
     7
100
AcDbLine
 10
1460.891589750384
 20
200.8671709695942
 30
0.0
 11
1460.891589750384
 21
204.4029332521626
 31
0.0
  0
LINE
  5
DB
330
1F
100
AcDbEntity
  8
0
  6
Continuous
 62
     7
100
AcDbLine
 10
1343.891590569517
 20
131.6671709695894
 30
0.0
 11
1343.891590569517
 21
165.9171709695874
 31
0.0
  0
LINE
  5
DC
330
1F
100
AcDbEntity
  8
0
  6
Continuous
 62
     7
100
AcDbLine
 10
1343.891590569517
 20
165.9171709695874
 30
0.0
 11
1343.891590569516
 21
203.1663416487259
 31
0.0
  0
LINE
  5
DD
330
1F
100
AcDbEntity
  8
0
  6
Continuous
 62
     7
100
AcDbLine
 10
1347.541590569518
 20
209.4671709695905
 30
0.0
 11
1347.541590569517
 21
209.5671709695903
 31
0.0
  0
LINE
  5
DE
330
1F
100
AcDbEntity
  8
0
  6
Continuous
 62
     7
100
AcDbLine
 10
1345.041590569514
 20
219.9671709695895
 30
0.0
 11
1345.041590569514
 21
212.9671709695895
 31
0.0
  0
LINE
  5
DF
330
1F
100
AcDbEntity
  8
0
  6
Continuous
 62
     7
100
AcDbLine
 10
1347.541590569521
 20
220.967170969589
 30
0.0
 11
1346.041590569514
 21
220.9671709695894
 31
0.0
  0
LINE
  5
E0
330
1F
100
AcDbEntity
  8
0
  6
Continuous
 62
     7
100
AcDbLine
 10
1346.041590569513
 20
211.9671709695893
 30
0.0
 11
1347.541590569521
 21
211.967170969589
 31
0.0
  0
LINE
  5
E1
330
1F
100
AcDbEntity
  8
0
  6
Continuous
 62
     7
100
AcDbLine
 10
1348.029885885726
 20
209.4842226177715
 30
0.0
 11
1348.022910238351
 21
209.5839790227974
 31
0.0
  0
LINE
  5
E2
330
1F
100
AcDbEntity
  8
0
  6
Continuous
 62
     7
100
AcDbLine
 10
1348.97618123616
 20
209.717952524527
 30
0.0
 11
1348.996972405242
 21
209.6201377644535
 31
0.0
  0
LINE
  5
E3
330
1F
100
AcDbEntity
  8
0
  6
Continuous
 62
     7
100
AcDbLine
 10
1353.743269488983
 20
219.4919318824343
 30
0.0
 11
1353.833148893613
 21
219.5357689971134
 31
0.0
  0
LINE
  5
E4
330
1F
100
AcDbEntity
  8
0
  6
Continuous
 62
     7
100
AcDbLine
 10
1353.344853577404
 20
220.3815212938851
 30
0.0
 11
1353.261949820149
 21
220.325602003538
 31
0.0
  0
LINE
  5
E5
330
1F
100
AcDbEntity
  8
0
  6
Continuous
 62
     7
100
AcDbLine
 10
1353.54159056951
 20
213.0030693544508
 30
0.0
 11
1353.603768396009
 21
212.9671709695896
 31
0.0
  0
LINE
  5
E6
330
1F
100
AcDbEntity
  8
0
  6
Continuous
 62
     7
100
AcDbLine
 10
1353.517165855631
 20
213.0171709695898
 30
0.0
 11
1353.54159056951
 21
213.0030693544508
 31
0.0
  0
LINE
  5
E7
330
1F
100
AcDbEntity
  8
0
  6
Continuous
 62
     7
100
AcDbLine
 10
1353.54159056951
 20
213.0030693544508
 30
0.0
 11
1353.54159056951
 21
213.0598259620919
 31
0.0
  0
LINE
  5
E8
330
1F
100
AcDbEntity
  8
0
  6
Continuous
 62
     7
100
AcDbLine
 10
1352.669289865313
 20
221.0841721534661
 30
0.0
 11
1352.743604347861
 21
221.151085214102
 31
0.0
  0
LINE
  5
E9
330
1F
100
AcDbEntity
  8
0
  6
Continuous
 62
     7
100
AcDbLine
 10
1352.978864769404
 20
212.2191067898426
 30
0.0
 11
1353.057665844765
 21
212.1575406423101
 31
0.0
  0
LINE
  5
EA
330
1F
100
AcDbEntity
  8
0
  6
Continuous
 62
     7
100
AcDbLine
 10
1354.031877551485
 20
213.8449248156783
 30
0.0
 11
1353.939159166028
 21
213.8823854750199
 31
0.0
  0
LINE
  5
EB
330
1F
100
AcDbEntity
  8
0
  6
Continuous
 62
     7
100
AcDbLine
 10
1354.041590569517
 20
165.9171709695874
 30
0.0
 11
1343.891590569517
 21
165.9171709695874
 31
0.0
  0
LINE
  5
EC
330
1F
100
AcDbEntity
  8
0
  6
Continuous
 62
     7
100
AcDbLine
 10
1351.976825076356
 20
221.7528776271107
 30
0.0
 11
1352.041103837325
 21
221.8294820714228
 31
0.0
  0
LINE
  5
ED
330
1F
100
AcDbEntity
  8
0
  6
Continuous
 62
     7
100
AcDbLine
 10
1351.198033492728
 20
222.3187028330695
 30
0.0
 11
1351.251025419151
 21
222.403507642685
 31
0.0
  0
LINE
  5
EE
330
1F
100
AcDbEntity
  8
0
  6
Continuous
 62
     7
100
AcDbLine
 10
1350.388747071049
 20
222.8619891730884
 30
0.0
 11
1350.348073406742
 21
222.7706346273242
 31
0.0
  0
LINE
  5
EF
330
1F
100
AcDbEntity
  8
0
  6
Continuous
 62
     7
100
AcDbLine
 10
1349.443488324656
 20
223.0998766715645
 30
0.0
 11
1349.471052060238
 21
223.1960028411585
 31
0.0
  0
LINE
  5
F0
330
1F
100
AcDbEntity
  8
0
  6
Continuous
 62
     7
100
AcDbLine
 10
1348.501884966143
 20
223.3000206439073
 30
0.0
 11
1348.515802276239
 21
223.3990474507813
 31
0.0
  0
LINE
  5
F1
330
1F
100
AcDbEntity
  8
0
  6
Continuous
 62
     7
100
AcDbLine
 10
1347.541590569519
 20
223.4671709695905
 30
0.0
 11
1347.541590569519
 21
223.3671709695905
 31
0.0
  0
LINE
  5
F2
330
1F
100
AcDbEntity
  8
0
  6
Continuous
 62
     7
100
AcDbLine
 10
1343.041590569517
 20
127.6671709695906
 30
0.0
 11
1354.041590569517
 21
127.6671709695904
 31
0.0
  0
LINE
  5
F3
330
1F
100
AcDbEntity
  8
0
  6
Continuous
 62
     7
100
AcDbLine
 10
1237.041590569517
 20
127.6671709695904
 30
0.0
 11
1248.041590569517
 21
127.6671709695906
 31
0.0
  0
LINE
  5
F4
330
1F
100
AcDbEntity
  8
0
  6
Continuous
 62
     7
100
AcDbLine
 10
1237.041590569517
 20
127.6671709695904
 30
0.0
 11
1237.041590569517
 21
131.6671709695893
 31
0.0
  0
LINE
  5
F5
330
1F
100
AcDbEntity
  8
0
  6
Continuous
 62
     7
100
AcDbLine
 10
1248.041590569517
 20
127.6671709695906
 30
0.0
 11
1248.041590569517
 21
128.1671709695906
 31
0.0
  0
LINE
  5
F6
330
1F
100
AcDbEntity
  8
0
  6
Continuous
 62
     7
100
AcDbLine
 10
1247.191590569517
 20
148.1671709695892
 30
0.0
 11
1247.191590569517
 21
131.6671709695893
 31
0.0
  0
LINE
  5
F7
330
1F
100
AcDbEntity
  8
0
  6
Continuous
 62
     7
100
AcDbLine
 10
1274.231323988186
 20
194.2662367145773
 30
0.0
 11
1273.273024517727
 21
194.8195111718118
 31
0.0
  0
LINE
  5
F8
330
1F
100
AcDbEntity
  8
0
  6
Continuous
 62
     7
100
AcDbLine
 10
1274.789412919083
 20
214.3233314280431
 30
0.0
 11
1275.046432976393
 21
214.1686036343459
 31
0.0
  0
LINE
  5
F9
330
1F
100
AcDbEntity
  8
0
  6
Continuous
 62
     7
100
AcDbLine
 10
1270.233226423614
 20
210.1671709695935
 30
0.0
 11
1271.296328279629
 21
213.0880193135712
 31
0.0
  0
LINE
  5
FA
330
1F
100
AcDbEntity
  8
0
  6
Continuous
 62
     7
100
AcDbLine
 10
1269.426875794747
 20
207.9517408246133
 30
0.0
 11
1269.686969224106
 21
208.6663416487259
 31
0.0
  0
LINE
  5
FB
330
1F
100
AcDbEntity
  8
0
  6
Continuous
 62
     7
100
AcDbLine
 10
1274.873024517725
 20
197.590792463922
 30
0.0
 11
1276.193420744801
 21
196.8284613467837
 31
0.0
  0
LINE
  5
FC
330
1F
100
AcDbEntity
  8
0
  6
Continuous
 62
     7
100
AcDbLine
 10
1270.016880276389
 20
216.4682081544596
 30
0.0
 11
1261.819114852409
 21
207.9293103018314
 31
0.0
  0
LINE
  5
FD
330
1F
100
AcDbEntity
  8
0
  6
Continuous
 62
     7
100
AcDbLine
 10
1280.351590569514
 20
219.4671709695881
 30
0.0
 11
1280.351590569514
 21
217.1671709695899
 31
0.0
  0
LINE
  5
FE
330
1F
100
AcDbEntity
  8
0
  6
Continuous
 62
     7
100
AcDbLine
 10
1277.85159056951
 20
219.4671709695929
 30
0.0
 11
1277.85159056951
 21
217.9851888517153
 31
0.0
  0
LINE
  5
FF
330
1F
100
AcDbEntity
  8
0
  6
Continuous
 62
     7
100
AcDbLine
 10
1256.599972201286
 20
220.9671709695905
 30
0.0
 11
1276.35159056951
 21
220.9671709695929
 31
0.0
  0
LINE
  5
100
330
1F
100
AcDbEntity
  8
0
  6
Continuous
 62
     7
100
AcDbLine
 10
1247.191590569517
 20
203.1663416487259
 30
0.0
 11
1252.260858914937
 21
203.166341648726
 31
0.0
  0
LINE
  5
101
330
1F
100
AcDbEntity
  8
0
  6
Continuous
 62
     7
100
AcDbLine
 10
1247.191590569517
 20
148.1671709695892
 30
0.0
 11
1247.191590569517
 21
165.9171709695874
 31
0.0
  0
LINE
  5
102
330
1F
100
AcDbEntity
  8
0
  6
Continuous
 62
     7
100
AcDbLine
 10
1343.548444819009
 20
131.6671709695893
 30
0.0
 11
1354.041590569517
 21
131.6671709695904
 31
0.0
  0
LINE
  5
103
330
1F
100
AcDbEntity
  8
0
  6
Continuous
 62
     7
100
AcDbLine
 10
1260.000882713037
 20
131.6671709695898
 30
0.0
 11
1247.534736320024
 21
131.6671709695893
 31
0.0
  0
LINE
  5
104
330
1F
100
AcDbEntity
  8
0
  6
Continuous
 62
     7
100
AcDbLine
 10
1323.937721427829
 20
192.3906560575252
 30
0.0
 11
1338.832322224094
 21
203.1663416487259
 31
0.0
  0
LINE
  5
105
330
1F
100
AcDbEntity
  8
0
  6
Continuous
 62
     7
100
AcDbLine
 10
1329.274066286625
 20
207.9293103018314
 30
0.0
 11
1321.076300862645
 21
216.4682081544595
 31
0.0
  0
LINE
  5
106
330
1F
100
AcDbEntity
  8
0
  6
Continuous
 62
     7
100
AcDbLine
 10
1338.832322224094
 20
203.1663416487259
 30
0.0
 11
1343.891590569516
 21
203.1663416487259
 31
0.0
  0
LINE
  5
107
330
1F
100
AcDbEntity
  8
0
  6
Continuous
 62
     7
100
AcDbLine
 10
1316.303768219951
 20
214.3233314280491
 30
0.0
 11
1316.046748162641
 21
214.1686036343521
 31
0.0
  0
LINE
  5
108
330
1F
100
AcDbEntity
  8
0
  6
Continuous
 62
     7
100
AcDbLine
 10
1320.85995471542
 20
210.1671709695935
 30
0.0
 11
1319.796852859403
 21
213.0880193135771
 31
0.0
  0
LINE
  5
109
330
1F
100
AcDbEntity
  8
0
  6
Continuous
 62
     7
100
AcDbLine
 10
1321.666305344287
 20
207.9517408246192
 30
0.0
 11
1321.40621191493
 21
208.6663416487259
 31
0.0
  0
LINE
  5
10A
330
1F
100
AcDbEntity
  8
0
  6
Continuous
 62
     7
100
AcDbLine
 10
1314.888902890023
 20
196.8284613467896
 30
0.0
 11
1316.209299117097
 21
197.5907924639279
 31
0.0
  0
LINE
  5
10B
330
1F
100
AcDbEntity
  8
0
  6
Continuous
 62
     7
100
AcDbLine
 10
1317.809299117097
 20
194.8195111718177
 30
0.0
 11
1316.850999646637
 21
194.2662367145832
 31
0.0
  0
LINE
  5
10C
330
1F
100
AcDbEntity
  8
0
  6
Continuous
 62
     7
100
AcDbLine
 10
1313.241590569523
 20
217.9851888517153
 30
0.0
 11
1313.241590569523
 21
219.467170969593
 31
0.0
  0
LINE
  5
10D
330
1F
100
AcDbEntity
  8
0
  6
Continuous
 62
     7
100
AcDbLine
 10
1314.741590569523
 20
220.9671709695929
 30
0.0
 11
1335.174891723849
 21
220.9671709695905
 31
0.0
  0
LINE
  5
10E
330
1F
100
AcDbEntity
  8
0
  6
Continuous
 62
     7
100
AcDbLine
 10
1314.74159056952
 20
223.4671709695943
 30
0.0
 11
1347.541590569519
 21
223.4671709695905
 31
0.0
  0
LINE
  5
10F
330
1F
100
AcDbEntity
  8
0
  6
Continuous
 62
     7
100
AcDbLine
 10
1310.74159056952
 20
217.1671709695958
 30
0.0
 11
1310.74159056952
 21
219.4671709695943
 31
0.0
  0
LINE
  5
110
330
1F
100
AcDbEntity
  8
0
  6
Continuous
 62
     7
100
AcDbLine
 10
1237.041590569517
 20
165.9171709695874
 30
0.0
 11
1237.041590569517
 21
131.6671709695893
 31
0.0
  0
LINE
  5
111
330
1F
100
AcDbEntity
  8
0
  6
Continuous
 62
     7
100
AcDbLine
 10
1237.041590569517
 20
165.9171709695874
 30
0.0
 11
1247.191590569517
 21
165.9171709695874
 31
0.0
  0
LINE
  5
112
330
1F
100
AcDbEntity
  8
0
  6
Continuous
 62
     7
100
AcDbLine
 10
1247.534736320024
 20
131.6671709695893
 30
0.0
 11
1237.041590569517
 21
131.6671709695893
 31
0.0
  0
LINE
  5
113
330
1F
100
AcDbEntity
  8
0
  6
Continuous
 62
     7
100
AcDbLine
 10
1245.051590569521
 20
211.9671709695894
 30
0.0
 11
1243.551590569512
 21
211.967170969589
 31
0.0
  0
LINE
  5
114
330
1F
100
AcDbEntity
  8
0
  6
Continuous
 62
     7
100
AcDbLine
 10
1238.758447813349
 20
211.5037263472531
 30
0.0
 11
1238.688981976302
 21
211.4317923672193
 31
0.0
  0
LINE
  5
115
330
1F
100
AcDbEntity
  8
0
  6
Continuous
 62
     7
100
AcDbLine
 10
1243.551590569516
 20
209.5671709695903
 30
0.0
 11
1243.551590569516
 21
209.4671709695904
 31
0.0
  0
LINE
  5
116
330
1F
100
AcDbEntity
  8
0
  6
Continuous
 62
     7
100
AcDbLine
 10
1243.063295253307
 20
209.4842226177715
 30
0.0
 11
1243.070270900682
 21
209.5839790227974
 31
0.0
  0
LINE
  5
117
330
1F
100
AcDbEntity
  8
0
  6
Continuous
 62
     7
100
AcDbLine
 10
1242.116999902874
 20
209.717952524527
 30
0.0
 11
1242.096208733792
 21
209.6201377644535
 31
0.0
  0
LINE
  5
118
330
1F
100
AcDbEntity
  8
0
  6
Continuous
 62
     7
100
AcDbLine
 10
1241.157449566236
 20
209.8893226240888
 30
0.0
 11
1241.191651580568
 21
209.9832918861672
 31
0.0
  0
LINE
  5
119
330
1F
100
AcDbEntity
  8
0
  6
Continuous
 62
     7
100
AcDbLine
 10
1240.312236786293
 20
210.3748325788635
 30
0.0
 11
1240.265289630015
 21
210.2865378195776
 31
0.0
  0
LINE
  5
11A
330
1F
100
AcDbEntity
  8
0
  6
Continuous
 62
     7
100
AcDbLine
 10
1239.495872328698
 20
210.8849537084027
 30
0.0
 11
1239.437093803469
 21
210.8040520089652
 31
0.0
  0
LINE
  5
11B
330
1F
100
AcDbEntity
  8
0
  6
Continuous
 62
     7
100
AcDbLine
 10
1246.05159056952
 20
219.9671709695895
 30
0.0
 11
1246.05159056952
 21
212.9671709695895
 31
0.0
  0
LINE
  5
11C
330
1F
100
AcDbEntity
  8
0
  6
Continuous
 62
     7
100
AcDbLine
 10
1239.116356062678
 20
221.7528776271107
 30
0.0
 11
1239.052077301709
 21
221.8294820714228
 31
0.0
  0
LINE
  5
11D
330
1F
100
AcDbEntity
  8
0
  6
Continuous
 62
     7
100
AcDbLine
 10
1276.351590569513
 20
223.4671709695881
 30
0.0
 11
1243.551590569514
 21
223.4671709695905
 31
0.0
  0
LINE
  5
11E
330
1F
100
AcDbEntity
  8
0
  6
Continuous
 62
     7
100
AcDbLine
 10
1243.551590569512
 20
220.9671709695893
 30
0.0
 11
1245.05159056952
 21
220.9671709695894
 31
0.0
  0
LINE
  5
11F
330
1F
100
AcDbEntity
  8
0
  6
Continuous
 62
     7
100
AcDbLine
 10
1243.551590569514
 20
223.4671709695905
 30
0.0
 11
1243.551590569514
 21
223.3671709695905
 31
0.0
  0
LINE
  5
120
330
1F
100
AcDbEntity
  8
0
  6
Continuous
 62
     7
100
AcDbLine
 10
1242.59129617289
 20
223.3000206439072
 30
0.0
 11
1242.577378862794
 21
223.3990474507813
 31
0.0
  0
LINE
  5
121
330
1F
100
AcDbEntity
  8
0
  6
Continuous
 62
     7
100
AcDbLine
 10
1241.649692814377
 20
223.0998766715645
 30
0.0
 11
1241.622129078796
 21
223.1960028411585
 31
0.0
  0
LINE
  5
122
330
1F
100
AcDbEntity
  8
0
  6
Continuous
 62
     7
100
AcDbLine
 10
1240.704434067984
 20
222.8619891730884
 30
0.0
 11
1240.745107732292
 21
222.7706346273242
 31
0.0
  0
LINE
  5
123
330
1F
100
AcDbEntity
  8
0
  6
Continuous
 62
     7
100
AcDbLine
 10
1239.895147646306
 20
222.3187028330695
 30
0.0
 11
1239.842155719882
 21
222.403507642685
 31
0.0
  0
LINE
  5
124
330
1F
100
AcDbEntity
  8
0
  6
Continuous
 62
     7
100
AcDbLine
 10
1236.555854780382
 20
216.711467446503
 30
0.0
 11
1236.655793863084
 21
216.7079774968328
 31
0.0
  0
LINE
  5
125
330
1F
100
AcDbEntity
  8
0
  6
Continuous
 62
     7
100
AcDbLine
 10
1236.756417073731
 20
217.6653433954872
 30
0.0
 11
1236.65793629843
 21
217.6827082132541
 31
0.0
  0
LINE
  5
126
330
1F
100
AcDbEntity
  8
0
  6
Continuous
 62
     7
100
AcDbLine
 10
1237.260032245421
 20
219.5357689971091
 30
0.0
 11
1237.349911650051
 21
219.4919318824302
 31
0.0
  0
LINE
  5
127
330
1F
100
AcDbEntity
  8
0
  6
Continuous
 62
     7
100
AcDbLine
 10
1237.154021973005
 20
213.8823854750157
 30
0.0
 11
1237.061303587548
 21
213.8449248156741
 31
0.0
  0
LINE
  5
128
330
1F
100
AcDbEntity
  8
0
  6
Continuous
 62
     7
100
AcDbLine
 10
1236.759520485583
 20
214.7737177003877
 30
0.0
 11
1236.85655005821
 21
214.7979098899479
 31
0.0
  0
LINE
  5
129
330
1F
100
AcDbEntity
  8
0
  6
Continuous
 62
     7
100
AcDbLine
 10
1236.689389491474
 20
215.7459245730387
 30
0.0
 11
1236.589937301937
 21
215.7354717267118
 31
0.0
  0
LINE
  5
12A
330
1F
100
AcDbEntity
  8
0
  6
Continuous
 62
     7
100
AcDbLine
 10
1238.035515294269
 20
212.1575406423059
 30
0.0
 11
1238.114316369629
 21
212.2191067898387
 31
0.0
  0
LINE
  5
12B
330
1F
100
AcDbEntity
  8
0
  6
Continuous
 62
     7
100
AcDbLine
 10
1237.551590569523
 20
213.0030693544508
 30
0.0
 11
1237.576015283403
 21
213.0171709695856
 31
0.0
  0
LINE
  5
12C
330
1F
100
AcDbEntity
  8
0
  6
Continuous
 62
     7
100
AcDbLine
 10
1237.489412743024
 20
212.9671709695855
 30
0.0
 11
1237.551590569523
 21
213.0030693544508
 31
0.0
  0
LINE
  5
12D
330
1F
100
AcDbEntity
  8
0
  6
Continuous
 62
     7
100
AcDbLine
 10
1237.551590569523
 20
213.0030693544508
 30
0.0
 11
1237.551590569523
 21
213.059825962092
 31
0.0
  0
LINE
  5
12E
330
1F
100
AcDbEntity
  8
0
  6
Continuous
 62
     7
100
AcDbLine
 10
1236.894194955449
 20
218.63028993021
 30
0.0
 11
1236.989300607078
 21
218.5993882307727
 31
0.0
  0
LINE
  5
12F
330
1F
100
AcDbEntity
  8
0
  6
Continuous
 62
     7
100
AcDbLine
 10
1237.831231318885
 20
220.3256020035339
 30
0.0
 11
1237.74832756163
 21
220.3815212938809
 31
0.0
  0
LINE
  5
130
330
1F
100
AcDbEntity
  8
0
  6
Continuous
 62
     7
100
AcDbLine
 10
1238.423891273721
 20
221.0841721534661
 30
0.0
 11
1238.349576791172
 21
221.151085214102
 31
0.0
  0
LINE
  5
131
330
1F
100
AcDbEntity
  8
0
  6
Continuous
 62
     7
100
AcDbLine
 10
1267.155459711205
 20
192.3906560575192
 30
0.0
 11
1252.260858914937
 21
203.166341648726
 31
0.0
  0
LINE
  5
132
330
1F
100
AcDbEntity
  8
0
  6
Continuous
 62
     7
100
AcDbLine
 10
1343.548444819009
 20
131.6671709695893
 30
0.0
 11
1331.082298425996
 21
131.6671709695898
 31
0.0
  0
LINE
  5
133
330
1F
100
AcDbEntity
  8
0
  6
Continuous
 62
     7
100
AcDbLine
 10
1277.396913052351
 20
203.1663416487259
 30
0.0
 11
1313.696268086677
 21
203.1663416487259
 31
0.0
  0
LINE
  5
134
330
1F
100
AcDbEntity
  8
0
  6
Continuous
 62
     7
100
AcDbLine
 10
1269.686969224106
 20
208.6663416487259
 30
0.0
 11
1321.40621191493
 21
208.6663416487259
 31
0.0
  0
LINE
  5
135
330
1F
100
AcDbEntity
  8
0
  6
Continuous
 62
     7
100
AcDbLine
 10
1352.334733325685
 20
211.5037263472531
 30
0.0
 11
1352.404199162731
 21
211.4317923672194
 31
0.0
  0
LINE
  5
136
330
1F
100
AcDbEntity
  8
0
  6
Continuous
 62
     7
100
AcDbLine
 10
1350.78094435274
 20
210.3748325788635
 30
0.0
 11
1350.827891509019
 21
210.2865378195776
 31
0.0
  0
LINE
  5
137
330
1F
100
AcDbEntity
  8
0
  6
Continuous
 62
     7
100
AcDbLine
 10
1354.041590569517
 20
127.6671709695904
 30
0.0
 11
1354.041590569517
 21
131.6671709695904
 31
0.0
  0
LINE
  5
138
330
1F
100
AcDbEntity
  8
0
  6
Continuous
 62
     7
100
AcDbLine
 10
1343.041590569517
 20
128.1671709695906
 30
0.0
 11
1343.041590569517
 21
127.6671709695906
 31
0.0
  0
LINE
  5
139
330
1F
100
AcDbEntity
  8
0
  6
Continuous
 62
     7
100
AcDbLine
 10
1248.041590569517
 20
128.1671709695906
 30
0.0
 11
1343.041590569517
 21
128.1671709695906
 31
0.0
  0
LINE
  5
13A
330
1F
100
AcDbEntity
  8
0
  6
Continuous
 62
     7
100
AcDbLine
 10
1349.935731572797
 20
209.8893226240888
 30
0.0
 11
1349.901529558465
 21
209.9832918861673
 31
0.0
  0
LINE
  5
13B
330
1F
100
AcDbEntity
  8
0
  6
Continuous
 62
     7
100
AcDbLine
 10
1351.597308810336
 20
210.8849537084027
 30
0.0
 11
1351.656087335565
 21
210.8040520089652
 31
0.0
  0
LINE
  5
13C
330
1F
100
AcDbEntity
  8
0
  6
Continuous
 62
     7
100
AcDbLine
 10
1354.236631080823
 20
214.797909889952
 30
0.0
 11
1354.33366065345
 21
214.7737177003919
 31
0.0
  0
LINE
  5
13D
330
1F
100
AcDbEntity
  8
0
  6
Continuous
 62
     7
100
AcDbLine
 10
1354.503243837096
 20
215.735471726716
 30
0.0
 11
1354.403791647559
 21
215.7459245730428
 31
0.0
  0
LINE
  5
13E
330
1F
100
AcDbEntity
  8
0
  6
Continuous
 62
     7
100
AcDbLine
 10
1354.43738727595
 20
216.7079774968369
 30
0.0
 11
1354.537326358652
 21
216.7114674465071
 31
0.0
  0
LINE
  5
13F
330
1F
100
AcDbEntity
  8
0
  6
Continuous
 62
     7
100
AcDbLine
 10
1354.435244840604
 20
217.6827082132582
 30
0.0
 11
1354.336764065303
 21
217.6653433954914
 31
0.0
  0
LINE
  5
140
330
1F
100
AcDbEntity
  8
0
  6
Continuous
 62
     7
100
AcDbLine
 10
1354.103880531955
 20
218.5993882307769
 30
0.0
 11
1354.198986183585
 21
218.6302899302142
 31
0.0
  0
LINE
  5
141
330
1F
100
AcDbEntity
  8
1
  6
Continuous
 62
     7
100
AcDbLine
 10
1343.891590569516
 20
203.1663416487259
 30
0.0
 11
1343.891590569517
 21
206.8265327312193
 31
0.0
  0
LINE
  5
142
330
1F
100
AcDbEntity
  8
0
  6
Continuous
 62
     7
100
AcDbLine
 10
1343.891590569517
 20
206.8265327312193
 30
0.0
 11
1346.434650974883
 21
208.6663416487259
 31
0.0
  0
LINE
  5
143
330
1F
100
AcDbEntity
  8
0
  6
Continuous
 62
     7
100
AcDbLine
 10
1247.191590569517
 20
206.8337673565292
 30
0.0
 11
1244.658530164149
 21
208.6663416487259
 31
0.0
  0
LINE
  5
144
330
1F
100
AcDbEntity
  8
0
  6
Continuous
 62
     7
100
AcDbLine
 10
1455.391589750383
 20
209.3990474507806
 30
0.0
 11
1455.391589750381
 21
221.8562226129277
 31
0.0
  0
LINE
  5
145
330
1F
100
AcDbEntity
  8
1
  6
Continuous
 62
     7
100
AcDbLine
 10
1455.391589750383
 20
210.7442322871405
 30
0.0
 11
1513.391589750383
 21
210.7442322871405
 31
0.0
  0
LINE
  5
146
330
1F
100
AcDbEntity
  8
0
  6
Continuous
 62
     7
100
AcDbLine
 10
1513.391589750382
 20
221.8562226129277
 30
0.0
 11
1513.391589750383
 21
209.3990474507871
 31
0.0
  0
LINE
  5
147
330
1F
100
AcDbEntity
  8
1
  6
Continuous
 62
     7
100
AcDbLine
 10
1455.391589750381
 20
221.8562226129277
 30
0.0
 11
1513.391589750382
 21
221.8562226129277
 31
0.0
  0
LINE
  5
148
330
1F
100
AcDbEntity
  8
0
  6
Continuous
 62
     7
100
AcDbLine
 10
1455.391589750382
 20
216.6433439277015
 30
0.0
 11
1476.876783979728
 21
216.6433439276997
 31
0.0
  0
LINE
  5
149
330
1F
100
AcDbEntity
  8
0
  6
Continuous
 62
     7
100
AcDbLine
 10
1476.876783979728
 20
219.467645478306
 30
0.0
 11
1455.391589750382
 21
219.4676454783035
 31
0.0
  0
LINE
  5
14A
330
1F
100
AcDbEntity
  8
0
  6
Continuous
 62
     7
100
AcDbLine
 10
1481.995586133245
 20
215.7490474507825
 30
0.0
 11
1482.515201375516
 21
214.8490474507827
 31
0.0
  0
LINE
  5
14B
330
1F
100
AcDbEntity
  8
0
  6
Continuous
 62
     7
100
AcDbLine
 10
1476.876783979729
 20
215.6673482079087
 30
0.0
 11
1455.391589750382
 21
215.6673482079102
 31
0.0
  0
LINE
  5
14C
330
1F
100
AcDbEntity
  8
0
  6
Continuous
 62
     7
100
AcDbLine
 10
1513.391589750383
 20
215.6673482079104
 30
0.0
 11
1491.906395521036
 21
215.6673482079104
 31
0.0
  0
LINE
  5
14D
330
1F
100
AcDbEntity
  8
0
  6
Continuous
 62
     7
100
AcDbLine
 10
1476.876783979728
 20
216.6433439276997
 30
0.0
 11
1476.876783979729
 21
215.6673482079087
 31
0.0
  0
LINE
  5
14E
330
1F
100
AcDbEntity
  8
0
  6
Continuous
 62
     7
100
AcDbLine
 10
1477.376783979729
 20
214.549047450782
 30
0.0
 11
1477.376783979728
 21
216.4490474507821
 31
0.0
  0
LINE
  5
14F
330
1F
100
AcDbEntity
  8
0
  6
Continuous
 62
     7
100
AcDbLine
 10
1480.09033024492
 20
212.6490474507823
 30
0.0
 11
1477.376783979728
 21
217.3490474507818
 31
0.0
  0
LINE
  5
150
330
1F
100
AcDbEntity
  8
0
  6
Continuous
 62
     7
100
AcDbLine
 10
1485.863832936816
 20
217.249047450783
 30
0.0
 11
1483.208021698544
 21
212.6490474507827
 31
0.0
  0
LINE
  5
151
330
1F
100
AcDbEntity
  8
0
  6
Continuous
 62
     7
100
AcDbLine
 10
1481.418235864055
 20
220.1490474507822
 30
0.0
 11
1479.657317543028
 21
217.0990474507823
 31
0.0
  0
LINE
  5
152
330
1F
100
AcDbEntity
  8
0
  6
Continuous
 62
     7
100
AcDbLine
 10
1479.657317543028
 20
217.0990474507823
 30
0.0
 11
1480.176932785298
 21
216.1990474507822
 31
0.0
  0
LINE
  5
153
330
1F
100
AcDbEntity
  8
0
  6
Continuous
 62
     7
100
AcDbLine
 10
1491.406395521036
 20
213.549047450784
 30
0.0
 11
1491.406395521036
 21
215.4490474507838
 31
0.0
  0
LINE
  5
154
330
1F
100
AcDbEntity
  8
0
  6
Continuous
 62
     7
100
AcDbLine
 10
1482.977081590868
 20
220.1490474507826
 30
0.0
 11
1482.457466348597
 21
220.1490474507823
 31
0.0
  0
LINE
  5
155
330
1F
100
AcDbEntity
  8
0
  6
Continuous
 62
     7
100
AcDbLine
 10
1484.535927317679
 20
220.1490474507827
 30
0.0
 11
1484.016312075409
 21
220.1490474507827
 31
0.0
  0
LINE
  5
156
330
1F
100
AcDbEntity
  8
0
  6
Continuous
 62
     7
100
AcDbLine
 10
1484.391589750382
 20
216.3990474507827
 30
0.0
 11
1484.391589750382
 21
218.0990474507827
 31
0.0
  0
LINE
  5
157
330
1F
100
AcDbEntity
  8
0
  6
Continuous
 62
     7
100
AcDbLine
 10
1491.406395521036
 20
219.1490474507835
 30
0.0
 11
1491.406395521036
 21
220.1490474507835
 31
0.0
  0
LINE
  5
158
330
1F
100
AcDbEntity
  8
0
  6
Continuous
 62
     7
100
AcDbLine
 10
1490.309430009576
 20
220.1490474507832
 30
0.0
 11
1491.406395521036
 21
218.2490474507833
 31
0.0
  0
LINE
  5
159
330
1F
100
AcDbEntity
  8
0
  6
Continuous
 62
     7
100
AcDbLine
 10
1487.189185014574
 20
219.053470314189
 30
0.0
 11
1485.291589750382
 21
217.9578931775949
 31
0.0
  0
LINE
  5
15A
330
1F
100
AcDbEntity
  8
0
  6
Continuous
 62
     7
100
AcDbLine
 10
1487.567016230925
 20
218.3990474507831
 30
0.0
 11
1487.189185014574
 21
219.053470314189
 31
0.0
  0
LINE
  5
15B
330
1F
100
AcDbEntity
  8
0
  6
Continuous
 62
     7
100
AcDbLine
 10
1485.291589750382
 20
217.9578931775949
 30
0.0
 11
1485.291589750382
 21
220.1490474507827
 31
0.0
  0
LINE
  5
15C
330
1F
100
AcDbEntity
  8
0
  6
Continuous
 62
     7
100
AcDbLine
 10
1487.076268502114
 20
220.1490474507831
 30
0.0
 11
1485.291589750382
 21
220.1490474507827
 31
0.0
  0
LINE
  5
15D
330
1F
100
AcDbEntity
  8
0
  6
Continuous
 62
     7
100
AcDbLine
 10
1488.692849255845
 20
220.1490474507831
 30
0.0
 11
1487.595883744384
 21
220.1490474507831
 31
0.0
  0
LINE
  5
15E
330
1F
100
AcDbEntity
  8
0
  6
Continuous
 62
     7
100
AcDbLine
 10
1488.577379202007
 20
214.8490474507836
 30
0.0
 11
1489.096994444278
 21
215.7490474507835
 31
0.0
  0
LINE
  5
15F
330
1F
100
AcDbEntity
  8
0
  6
Continuous
 62
     7
100
AcDbLine
 10
1487.301268502114
 20
215.238758882486
 30
0.0
 11
1487.82682385206
 21
216.1490474507832
 31
0.0
  0
LINE
  5
160
330
1F
100
AcDbEntity
  8
0
  6
Continuous
 62
     7
100
AcDbLine
 10
1491.906395521036
 20
216.6433439277015
 30
0.0
 11
1491.906395521036
 21
215.6673482079104
 31
0.0
  0
LINE
  5
161
330
1F
100
AcDbEntity
  8
0
  6
Continuous
 62
     7
100
AcDbLine
 10
1491.406395521036
 20
216.3490474507836
 30
0.0
 11
1491.406395521036
 21
218.2490474507833
 31
0.0
  0
LINE
  5
162
330
1F
100
AcDbEntity
  8
0
  6
Continuous
 62
     7
100
AcDbLine
 10
1491.406395521036
 20
220.1490474507835
 30
0.0
 11
1490.829045251846
 21
220.1490474507835
 31
0.0
  0
LINE
  5
163
330
1F
100
AcDbEntity
  8
0
  6
Continuous
 62
     7
100
AcDbLine
 10
1490.309430009576
 20
220.1490474507832
 30
0.0
 11
1489.212464498115
 21
220.1490474507832
 31
0.0
  0
LINE
  5
164
330
1F
100
AcDbEntity
  8
0
  6
Continuous
 62
     7
100
AcDbLine
 10
1491.406395521036
 20
219.1490474507835
 30
0.0
 11
1490.829045251846
 21
220.1490474507835
 31
0.0
  0
LINE
  5
165
330
1F
100
AcDbEntity
  8
0
  6
Continuous
 62
     7
100
AcDbLine
 10
1488.427101527034
 20
214.5887588824864
 30
0.0
 11
1487.301268502114
 21
215.238758882486
 31
0.0
  0
LINE
  5
166
330
1F
100
AcDbEntity
  8
0
  6
Continuous
 62
     7
100
AcDbLine
 10
1487.82682385206
 20
216.1490474507832
 30
0.0
 11
1488.577379202007
 21
214.8490474507836
 31
0.0
  0
LINE
  5
167
330
1F
100
AcDbEntity
  8
0
  6
Continuous
 62
     7
100
AcDbLine
 10
1489.096994444278
 20
215.7490474507835
 30
0.0
 11
1487.82682385206
 21
217.949047450783
 31
0.0
  0
LINE
  5
168
330
1F
100
AcDbEntity
  8
0
  6
Continuous
 62
     7
100
AcDbLine
 10
1491.406395521036
 20
216.3490474507836
 30
0.0
 11
1489.212464498115
 21
220.1490474507832
 31
0.0
  0
LINE
  5
169
330
1F
100
AcDbEntity
  8
0
  6
Continuous
 62
     7
100
AcDbLine
 10
1484.391589750382
 20
216.3990474507827
 30
0.0
 11
1485.863832936816
 21
217.249047450783
 31
0.0
  0
LINE
  5
16A
330
1F
100
AcDbEntity
  8
0
  6
Continuous
 62
     7
100
AcDbLine
 10
1482.515201375516
 20
214.8490474507827
 30
0.0
 11
1484.391589750382
 21
218.0990474507827
 31
0.0
  0
LINE
  5
16B
330
1F
100
AcDbEntity
  8
0
  6
Continuous
 62
     7
100
AcDbLine
 10
1484.535927317679
 20
220.1490474507827
 30
0.0
 11
1481.995586133245
 21
215.7490474507825
 31
0.0
  0
LINE
  5
16C
330
1F
100
AcDbEntity
  8
0
  6
Continuous
 62
     7
100
AcDbLine
 10
1481.475970890975
 20
215.7490474507825
 30
0.0
 11
1484.016312075409
 21
220.1490474507827
 31
0.0
  0
LINE
  5
16D
330
1F
100
AcDbEntity
  8
0
  6
Continuous
 62
     7
100
AcDbLine
 10
1482.746141483193
 20
213.549047450783
 30
0.0
 11
1481.475970890975
 21
215.7490474507825
 31
0.0
  0
LINE
  5
16E
330
1F
100
AcDbEntity
  8
0
  6
Continuous
 62
     7
100
AcDbLine
 10
1480.436740406434
 20
215.7490474507822
 30
0.0
 11
1482.168791214002
 21
212.7490474507825
 31
0.0
  0
LINE
  5
16F
330
1F
100
AcDbEntity
  8
0
  6
Continuous
 62
     7
100
AcDbLine
 10
1482.977081590868
 20
220.1490474507826
 30
0.0
 11
1480.436740406434
 21
215.7490474507822
 31
0.0
  0
LINE
  5
170
330
1F
100
AcDbEntity
  8
0
  6
Continuous
 62
     7
100
AcDbLine
 10
1480.176932785298
 20
216.1990474507822
 30
0.0
 11
1482.457466348597
 21
220.1490474507823
 31
0.0
  0
LINE
  5
171
330
1F
100
AcDbEntity
  8
0
  6
Continuous
 62
     7
100
AcDbLine
 10
1488.692849255845
 20
220.1490474507831
 30
0.0
 11
1491.406395521036
 21
215.4490474507838
 31
0.0
  0
LINE
  5
172
330
1F
100
AcDbEntity
  8
0
  6
Continuous
 62
     7
100
AcDbLine
 10
1487.82682385206
 20
217.949047450783
 30
0.0
 11
1484.766867425356
 21
212.6490474507832
 31
0.0
  0
LINE
  5
173
330
1F
100
AcDbEntity
  8
0
  6
Continuous
 62
     7
100
AcDbLine
 10
1484.247252183086
 20
212.6490474507832
 30
0.0
 11
1487.567016230925
 21
218.3990474507831
 31
0.0
  0
LINE
  5
174
330
1F
100
AcDbEntity
  8
0
  6
Continuous
 62
     7
100
AcDbLine
 10
1477.376783979728
 20
219.2490474507819
 30
0.0
 11
1481.18729575638
 21
212.6490474507827
 31
0.0
  0
LINE
  5
175
330
1F
100
AcDbEntity
  8
0
  6
Continuous
 62
     7
100
AcDbLine
 10
1477.376783979728
 20
216.4490474507821
 30
0.0
 11
1479.570715002649
 21
212.6490474507827
 31
0.0
  0
LINE
  5
176
330
1F
100
AcDbEntity
  8
0
  6
Continuous
 62
     7
100
AcDbLine
 10
1491.906395521036
 20
216.6433439277015
 30
0.0
 11
1513.391589750382
 21
216.6433439277015
 31
0.0
  0
LINE
  5
177
330
1F
100
AcDbEntity
  8
0
  6
Continuous
 62
     7
100
AcDbLine
 10
1477.376783979728
 20
217.3490474507818
 30
0.0
 11
1477.376783979728
 21
219.2490474507819
 31
0.0
  0
LINE
  5
178
330
1F
100
AcDbEntity
  8
0
  6
Continuous
 62
     7
100
AcDbLine
 10
1513.391589750382
 20
219.4676454783101
 30
0.0
 11
1491.906395521036
 21
219.4676454783076
 31
0.0
  0
LINE
  5
179
330
1F
100
AcDbEntity
  8
0
  6
Continuous
 62
     7
100
AcDbLine
 10
1476.876783979728
 20
220.3133977750776
 30
0.0
 11
1476.876783979728
 21
219.467645478306
 31
0.0
  0
LINE
  5
17A
330
1F
100
AcDbEntity
  8
0
  6
Continuous
 62
     7
100
AcDbLine
 10
1476.876783979728
 20
220.3133977750776
 30
0.0
 11
1455.391589750382
 21
220.3133977750751
 31
0.0
  0
LINE
  5
17B
330
1F
100
AcDbEntity
  8
0
  6
Continuous
 62
     7
100
AcDbLine
 10
1481.418235864055
 20
220.1490474507822
 30
0.0
 11
1477.376783979729
 21
220.1490474507822
 31
0.0
  0
LINE
  5
17C
330
1F
100
AcDbEntity
  8
0
  6
Continuous
 62
     7
100
AcDbLine
 10
1513.391589750382
 20
220.3133977750818
 30
0.0
 11
1491.906395521036
 21
220.3133977750794
 31
0.0
  0
LINE
  5
17D
330
1F
100
AcDbEntity
  8
0
  6
Continuous
 62
     7
100
AcDbLine
 10
1491.906395521036
 20
220.3133977750794
 30
0.0
 11
1491.906395521036
 21
219.4676454783076
 31
0.0
  0
LINE
  5
17E
330
1F
100
AcDbEntity
  8
0
  6
Continuous
 62
     7
100
AcDbLine
 10
1513.391589750383
 20
209.3990474507871
 30
0.0
 11
1455.391589750383
 21
209.3990474507806
 31
0.0
  0
LINE
  5
17F
330
1F
100
AcDbEntity
  8
0
  6
Continuous
 62
     7
100
AcDbLine
 10
1491.906395521037
 20
212.0894171235043
 30
0.0
 11
1513.391589750383
 21
212.0894171235068
 31
0.0
  0
LINE
  5
180
330
1F
100
AcDbEntity
  8
0
  6
Continuous
 62
     7
100
AcDbLine
 10
1491.906395521037
 20
212.8990474507838
 30
0.0
 11
1513.391589750383
 21
212.8990474507863
 31
0.0
  0
LINE
  5
181
330
1F
100
AcDbEntity
  8
0
  6
Continuous
 62
     7
100
AcDbLine
 10
1487.30720860979
 20
212.6490474507831
 30
0.0
 11
1487.826823852061
 21
213.5490474507836
 31
0.0
  0
LINE
  5
182
330
1F
100
AcDbEntity
  8
0
  6
Continuous
 62
     7
100
AcDbLine
 10
1486.851268502114
 20
214.4593360190801
 30
0.0
 11
1487.977101527034
 21
213.8093360190805
 31
0.0
  0
LINE
  5
183
330
1F
100
AcDbEntity
  8
0
  6
Continuous
 62
     7
100
AcDbLine
 10
1487.826823852061
 20
213.5490474507836
 30
0.0
 11
1486.325713152168
 21
213.5490474507833
 31
0.0
  0
LINE
  5
184
330
1F
100
AcDbEntity
  8
0
  6
Continuous
 62
     7
100
AcDbLine
 10
1477.954134248919
 20
212.649047450782
 30
0.0
 11
1477.376783979729
 21
212.649047450782
 31
0.0
  0
LINE
  5
185
330
1F
100
AcDbEntity
  8
0
  6
Continuous
 62
     7
100
AcDbLine
 10
1477.376783979729
 20
212.649047450782
 30
0.0
 11
1477.376783979729
 21
213.6490474507822
 31
0.0
  0
LINE
  5
186
330
1F
100
AcDbEntity
  8
0
  6
Continuous
 62
     7
100
AcDbLine
 10
1477.376783979729
 20
213.6490474507822
 30
0.0
 11
1477.954134248919
 21
212.649047450782
 31
0.0
  0
LINE
  5
187
330
1F
100
AcDbEntity
  8
0
  6
Continuous
 62
     7
100
AcDbLine
 10
1479.570715002649
 20
212.6490474507827
 30
0.0
 11
1478.473749491189
 21
212.6490474507827
 31
0.0
  0
LINE
  5
188
330
1F
100
AcDbEntity
  8
0
  6
Continuous
 62
     7
100
AcDbLine
 10
1481.18729575638
 20
212.6490474507827
 30
0.0
 11
1480.09033024492
 21
212.6490474507823
 31
0.0
  0
LINE
  5
189
330
1F
100
AcDbEntity
  8
0
  6
Continuous
 62
     7
100
AcDbLine
 10
1482.284261267841
 20
212.7490474507827
 30
0.0
 11
1482.168791214002
 21
212.7490474507825
 31
0.0
  0
LINE
  5
18A
330
1F
100
AcDbEntity
  8
0
  6
Continuous
 62
     7
100
AcDbLine
 10
1483.208021698544
 20
212.6490474507827
 30
0.0
 11
1481.706910998651
 21
212.6490474507831
 31
0.0
  0
LINE
  5
18B
330
1F
100
AcDbEntity
  8
0
  6
Continuous
 62
     7
100
AcDbLine
 10
1484.766867425356
 20
212.6490474507832
 30
0.0
 11
1484.247252183086
 21
212.6490474507832
 31
0.0
  0
LINE
  5
18C
330
1F
100
AcDbEntity
  8
0
  6
Continuous
 62
     7
100
AcDbLine
 10
1482.284261267841
 20
212.7490474507827
 30
0.0
 11
1482.746141483193
 21
213.549047450783
 31
0.0
  0
LINE
  5
18D
330
1F
100
AcDbEntity
  8
0
  6
Continuous
 62
     7
100
AcDbLine
 10
1486.325713152168
 20
213.5490474507833
 30
0.0
 11
1486.851268502114
 21
214.4593360190801
 31
0.0
  0
LINE
  5
18E
330
1F
100
AcDbEntity
  8
0
  6
Continuous
 62
     7
100
AcDbLine
 10
1478.473749491189
 20
212.6490474507827
 30
0.0
 11
1477.376783979729
 21
214.549047450782
 31
0.0
  0
LINE
  5
18F
330
1F
100
AcDbEntity
  8
0
  6
Continuous
 62
     7
100
AcDbLine
 10
1491.906395521037
 20
212.8990474507838
 30
0.0
 11
1491.906395521037
 21
212.0894171235043
 31
0.0
  0
LINE
  5
190
330
1F
100
AcDbEntity
  8
0
  6
Continuous
 62
     7
100
AcDbLine
 10
1487.977101527034
 20
213.8093360190805
 30
0.0
 11
1488.427101527034
 21
214.5887588824864
 31
0.0
  0
LINE
  5
191
330
1F
100
AcDbEntity
  8
0
  6
Continuous
 62
     7
100
AcDbLine
 10
1455.391589750383
 20
212.0894171235002
 30
0.0
 11
1476.876783979729
 21
212.0894171235027
 31
0.0
  0
LINE
  5
192
330
1F
100
AcDbEntity
  8
0
  6
Continuous
 62
     7
100
AcDbLine
 10
1476.876783979729
 20
212.8990474507822
 30
0.0
 11
1476.876783979729
 21
212.0894171235027
 31
0.0
  0
LINE
  5
193
330
1F
100
AcDbEntity
  8
0
  6
Continuous
 62
     7
100
AcDbLine
 10
1455.391589750383
 20
212.8990474507797
 30
0.0
 11
1476.876783979729
 21
212.8990474507822
 31
0.0
  0
LINE
  5
194
330
1F
100
AcDbEntity
  8
0
  6
Continuous
 62
     7
100
AcDbLine
 10
1491.406395521037
 20
212.6490474507836
 30
0.0
 11
1487.30720860979
 21
212.6490474507831
 31
0.0
  0
LINE
  5
195
330
1F
100
AcDbEntity
  8
0
  6
Continuous
 62
     7
100
AcDbLine
 10
1491.406395521036
 20
213.549047450784
 30
0.0
 11
1487.595883744384
 21
220.1490474507831
 31
0.0
  0
LINE
  5
196
330
1F
100
AcDbEntity
  8
0
  6
Continuous
 62
     7
100
AcDbLine
 10
1481.706910998651
 20
212.6490474507831
 30
0.0
 11
1477.376783979729
 21
220.1490474507822
 31
0.0
  0
LINE
  5
197
330
1F
100
AcDbEntity
  8
0
  6
Continuous
 62
     7
100
AcDbLine
 10
1487.076268502114
 20
220.1490474507831
 30
0.0
 11
1491.406395521037
 21
212.6490474507836
 31
0.0
  0
LINE
  5
198
330
1F
100
AcDbEntity
  8
Sichtbare_Kanten_TC_020513_DIN_
  6
Continuous
 62
     7
100
AcDbLine
 10
1295.541590569517
 20
192.4163416487259
 30
0.0
 11
1294.416590569517
 21
193.9699214624119
 31
0.0
  0
LINE
  5
199
330
1F
100
AcDbEntity
  8
Sichtbare_Kanten_TC_020513_DIN_
  6
Continuous
 62
     7
100
AcDbLine
 10
1294.416590569517
 20
193.9699214624119
 30
0.0
 11
1294.416590569517
 21
189.9795626023629
 31
0.0
  0
LINE
  5
19A
330
1F
100
AcDbEntity
  8
Sichtbare_Kanten_TC_020513_DIN_
  6
Continuous
 62
     7
100
AcDbLine
 10
1293.666590569517
 20
189.9795626023629
 30
0.0
 11
1293.666590569517
 21
195.1271591566279
 31
0.0
  0
LINE
  5
19B
330
1F
100
AcDbEntity
  8
Sichtbare_Kanten_TC_020513_DIN_
  6
Continuous
 62
     7
100
AcDbLine
 10
1294.345319429007
 20
195.3470995574469
 30
0.0
 11
1295.541590569517
 21
193.6950971613669
 31
0.0
  0
LINE
  5
19C
330
1F
100
AcDbEntity
  8
Sichtbare_Kanten_TC_020513_DIN_
  6
Continuous
 62
     7
100
AcDbLine
 10
1295.541590569517
 20
193.6950971613669
 30
0.0
 11
1296.737861710026
 21
195.3470995574469
 31
0.0
  0
LINE
  5
19D
330
1F
100
AcDbEntity
  8
Sichtbare_Kanten_TC_020513_DIN_
  6
Continuous
 62
     7
100
AcDbLine
 10
1297.416590569517
 20
195.1271591566279
 30
0.0
 11
1297.416590569517
 21
188.2055241408249
 31
0.0
  0
LINE
  5
19E
330
1F
100
AcDbEntity
  8
Sichtbare_Kanten_TC_020513_DIN_
  6
Continuous
 62
     7
100
AcDbLine
 10
1296.666590569517
 20
188.2055241408249
 30
0.0
 11
1296.666590569517
 21
193.9699214624119
 31
0.0
  0
LINE
  5
19F
330
1F
100
AcDbEntity
  8
Sichtbare_Kanten_TC_020513_DIN_
  6
Continuous
 62
     7
100
AcDbLine
 10
1296.666590569517
 20
193.9699214624119
 30
0.0
 11
1295.541590569517
 21
192.4163416487259
 31
0.0
  0
LINE
  5
1A0
330
1F
100
AcDbEntity
  8
Sichtbare_Kanten_TC_020513_DIN_
  6
Continuous
 62
     7
100
AcDbLine
 10
1292.841590569517
 20
194.2185053104739
 30
0.0
 11
1292.841590569517
 21
189.3307644587039
 31
0.0
  0
LINE
  5
1A1
330
1F
100
AcDbEntity
  8
Sichtbare_Kanten_TC_020513_DIN_
  6
Continuous
 62
     7
100
AcDbLine
 10
1292.841590569517
 20
189.3307644587039
 30
0.0
 11
1295.728986489575
 21
187.6649591202079
 31
0.0
  0
LINE
  5
1A2
330
1F
100
AcDbEntity
  8
Sichtbare_Kanten_TC_020513_DIN_
  6
Continuous
 62
     7
100
AcDbLine
 10
1295.354194649458
 20
187.0153199306719
 30
0.0
 11
1292.279194649458
 21
188.7893583922099
 31
0.0
  0
LINE
  5
1A3
330
1F
100
AcDbEntity
  8
Sichtbare_Kanten_TC_020513_DIN_
  6
Continuous
 62
     7
100
AcDbLine
 10
1292.091590569517
 20
189.1141779869779
 30
0.0
 11
1292.091590569517
 21
194.2185053104739
 31
0.0
  0
LINE
  5
1A4
330
1F
100
AcDbEntity
  8
Sichtbare_Kanten_TC_020513_DIN_
  6
Continuous
 62
     7
100
AcDbLine
 10
1285.791590569517
 20
191.6663416487259
 30
0.0
 11
1295.541590569517
 21
197.2913416487259
 31
0.0
  0
LINE
  5
1A5
330
1F
100
AcDbEntity
  8
Sichtbare_Kanten_TC_020513_DIN_
  6
Continuous
 62
     7
100
AcDbLine
 10
1295.541590569517
 20
197.2913416487259
 30
0.0
 11
1305.291590569517
 21
191.6663416487259
 31
0.0
  0
LINE
  5
1A6
330
1F
100
AcDbEntity
  8
Sichtbare_Kanten_TC_020513_DIN_
  6
Continuous
 62
     7
100
AcDbLine
 10
1305.291590569517
 20
191.6663416487259
 30
0.0
 11
1295.541590569517
 21
186.0413416487259
 31
0.0
  0
LINE
  5
1A7
330
1F
100
AcDbEntity
  8
Sichtbare_Kanten_TC_020513_DIN_
  6
Continuous
 62
     7
100
AcDbLine
 10
1295.541590569517
 20
186.0413416487259
 30
0.0
 11
1285.791590569517
 21
191.6663416487259
 31
0.0
  0
LINE
  5
1A8
330
1F
100
AcDbEntity
  8
Sichtbare_Kanten_TC_020513_DIN_
  6
Continuous
 62
     7
100
AcDbLine
 10
1295.541590569517
 20
196.8584090231549
 30
0.0
 11
1286.542007120507
 21
191.6663416487259
 31
0.0
  0
LINE
  5
1A9
330
1F
100
AcDbEntity
  8
Sichtbare_Kanten_TC_020513_DIN_
  6
Continuous
 62
     7
100
AcDbLine
 10
1304.541174018526
 20
191.6663416487259
 30
0.0
 11
1295.541590569517
 21
196.8584090231549
 31
0.0
  0
LINE
  5
1AA
330
1F
100
AcDbEntity
  8
Sichtbare_Kanten_TC_020513_DIN_
  6
Continuous
 62
     7
100
AcDbLine
 10
1295.541590569517
 20
186.4742742742969
 30
0.0
 11
1304.541174018526
 21
191.6663416487259
 31
0.0
  0
LINE
  5
1AB
330
1F
100
AcDbEntity
  8
Sichtbare_Kanten_TC_020513_DIN_
  6
Continuous
 62
     7
100
AcDbLine
 10
1286.542007120507
 20
191.6663416487259
 30
0.0
 11
1295.541590569517
 21
186.4742742742969
 31
0.0
  0
LINE
  5
1AC
330
1F
100
AcDbEntity
  8
Sichtbare_Kanten_TC_020513_DIN_
  6
Continuous
 62
     7
100
AcDbLine
 10
1291.341590569517
 20
193.3531206950889
 30
0.0
 11
1291.341590569517
 21
189.9795626023629
 31
0.0
  0
LINE
  5
1AD
330
1F
100
AcDbEntity
  8
Sichtbare_Kanten_TC_020513_DIN_
  6
Continuous
 62
     7
100
AcDbLine
 10
1290.591590569517
 20
189.9795626023629
 30
0.0
 11
1290.591590569517
 21
193.3531206950889
 31
0.0
  0
LINE
  5
1AE
330
1F
100
AcDbEntity
  8
Sichtbare_Kanten_TC_020513_DIN_
  6
Continuous
 62
     7
100
AcDbLine
 10
1298.728986489575
 20
194.5865941360109
 30
0.0
 11
1300.978986489575
 21
193.2885172129339
 31
0.0
  0
LINE
  5
1AF
330
1F
100
AcDbEntity
  8
Sichtbare_Kanten_TC_020513_DIN_
  6
Continuous
 62
     7
100
AcDbLine
 10
1300.604194649458
 20
192.6388780233979
 30
0.0
 11
1298.916590569517
 21
193.6124957618259
 31
0.0
  0
LINE
  5
1B0
330
1F
100
AcDbEntity
  8
Sichtbare_Kanten_TC_020513_DIN_
  6
Continuous
 62
     7
100
AcDbLine
 10
1298.916590569517
 20
193.6124957618259
 30
0.0
 11
1298.916590569517
 21
192.0413416487259
 31
0.0
  0
LINE
  5
1B1
330
1F
100
AcDbEntity
  8
Sichtbare_Kanten_TC_020513_DIN_
  6
Continuous
 62
     7
100
AcDbLine
 10
1298.916590569517
 20
192.0413416487259
 30
0.0
 11
1300.791590569517
 21
192.0413416487259
 31
0.0
  0
LINE
  5
1B2
330
1F
100
AcDbEntity
  8
Sichtbare_Kanten_TC_020513_DIN_
  6
Continuous
 62
     7
100
AcDbLine
 10
1300.791590569517
 20
191.2913416487259
 30
0.0
 11
1298.916590569517
 21
191.2913416487259
 31
0.0
  0
LINE
  5
1B3
330
1F
100
AcDbEntity
  8
Sichtbare_Kanten_TC_020513_DIN_
  6
Continuous
 62
     7
100
AcDbLine
 10
1298.916590569517
 20
191.2913416487259
 30
0.0
 11
1298.916590569517
 21
189.7201875356269
 31
0.0
  0
LINE
  5
1B4
330
1F
100
AcDbEntity
  8
Sichtbare_Kanten_TC_020513_DIN_
  6
Continuous
 62
     7
100
AcDbLine
 10
1298.916590569517
 20
189.7201875356269
 30
0.0
 11
1300.604194649458
 21
190.6938052740539
 31
0.0
  0
LINE
  5
1B5
330
1F
100
AcDbEntity
  8
Sichtbare_Kanten_TC_020513_DIN_
  6
Continuous
 62
     7
100
AcDbLine
 10
1300.978986489575
 20
190.0441660845179
 30
0.0
 11
1298.728986489575
 21
188.7460891614409
 31
0.0
  0
LINE
  5
1B6
330
1F
100
AcDbEntity
  8
Sichtbare_Kanten_TC_020513_DIN_
  6
Continuous
 62
     7
100
AcDbLine
 10
1298.166590569517
 20
189.0709087562089
 30
0.0
 11
1298.166590569517
 21
194.2617745412429
 31
0.0
  0
ARC
  5
1B7
330
1F
100
AcDbEntity
  8
1
  6
DASHED
 62
     2
100
AcDbCircle
 10
1319.541590569517
 20
198.4671709695897
 30
0.0
 40
40.28663395418494
100
AcDbArc
 50
0.0
 51
48.13023443105919
  0
ARC
  5
1B8
330
1F
100
AcDbEntity
  8
1
  6
DASHED
 62
     2
100
AcDbCircle
 10
1271.551590569514
 20
198.4671709695897
 30
0.0
 40
40.28663395418318
100
AcDbArc
 50
131.8697655689319
 51
180.0
  0
ARC
  5
1B9
330
1F
100
AcDbEntity
  8
0
  6
Continuous
 62
     7
100
AcDbCircle
 10
1319.716850116617
 20
198.0606696873121
 30
0.0
 40
7.894003683607188
100
AcDbArc
 50
86.94490574156951
 51
139.7008464216053
  0
ARC
  5
1BA
330
1F
100
AcDbEntity
  8
0
  6
Continuous
 62
     7
100
AcDbCircle
 10
1271.694977141111
 20
198.3308931550306
 30
0.0
 40
7.476204603344608
100
AcDbArc
 50
232.6130090567297
 51
40.29915357843883
  0
ARC
  5
1BB
330
1F
100
AcDbEntity
  8
0
  6
Continuous
 62
     7
100
AcDbCircle
 10
1484.391589750388
 20
148.1671709695886
 30
0.0
 40
17.75
100
AcDbArc
 50
0.00000000000642
 51
180.0000000000068
  0
ARC
  5
1BC
330
1F
100
AcDbEntity
  8
0
  6
Continuous
 62
     7
100
AcDbCircle
 10
1334.834050330797
 20
213.2671707308762
 30
0.0
 40
7.707540238714971
100
AcDbArc
 50
223.8323393907933
 51
87.46545028841626
  0
ARC
  5
1BD
330
1F
100
AcDbEntity
  8
0
  6
Continuous
 62
     7
100
AcDbCircle
 10
1346.041590569514
 20
212.9671709695894
 30
0.0
 40
1.0
100
AcDbArc
 50
179.9999999999951
 51
269.9999999999349
  0
ARC
  5
1BE
330
1F
100
AcDbEntity
  8
0
  6
Continuous
 62
     7
100
AcDbCircle
 10
1346.041590569514
 20
219.9671709695894
 30
0.0
 40
1.0
100
AcDbArc
 50
90.0
 51
179.9999999999951
  0
ARC
  5
1BF
330
1F
100
AcDbEntity
  8
0
  6
Continuous
 62
     7
100
AcDbCircle
 10
1347.541590569518
 20
216.4671709695863
 30
0.0
 40
6.899999999995998
100
AcDbArc
 50
269.9999999999925
 51
273.9999999999906
  0
ARC
  5
1C0
330
1F
100
AcDbEntity
  8
0
  6
Continuous
 62
     7
100
AcDbCircle
 10
1347.541590569518
 20
216.4671709695863
 30
0.0
 40
6.999999999995977
100
AcDbArc
 50
273.9999999999951
 51
282.0000000000057
  0
ARC
  5
1C1
330
1F
100
AcDbEntity
  8
0
  6
Continuous
 62
     7
100
AcDbCircle
 10
1347.541590569517
 20
216.4671709695896
 30
0.0
 40
7.000000000001807
100
AcDbArc
 50
25.99999999999505
 51
33.99999999999435
  0
ARC
  5
1C2
330
1F
100
AcDbEntity
  8
0
  6
Continuous
 62
     7
100
AcDbCircle
 10
1347.541590569501
 20
216.4671709696227
 30
0.0
 40
6.900000000001581
100
AcDbArc
 50
24.39616528241989
 51
25.99999999968878
  0
ARC
  5
1C3
330
1F
100
AcDbEntity
  8
0
  6
Continuous
 62
     7
100
AcDbCircle
 10
1347.541590569519
 20
216.4671709695905
 30
0.0
 40
6.999999999998996
100
AcDbArc
 50
327.6076345141168
 51
329.9999999999889
  0
ARC
  5
1C4
330
1F
100
AcDbEntity
  8
0
  6
Continuous
 62
     7
100
AcDbCircle
 10
1347.541590569517
 20
216.4671709695896
 30
0.0
 40
6.900000000002051
100
AcDbArc
 50
33.99999999999091
 51
41.99999999999145
  0
ARC
  5
1C5
330
1F
100
AcDbEntity
  8
0
  6
Continuous
 62
     7
100
AcDbCircle
 10
1347.541590569519
 20
216.4671709695905
 30
0.0
 40
6.99999999999972
100
AcDbArc
 50
321.9999999999898
 51
327.6076345141168
  0
ARC
  5
1C6
330
1F
100
AcDbEntity
  8
0
  6
Continuous
 62
     7
100
AcDbCircle
 10
1347.541590569505
 20
216.4671709695531
 30
0.0
 40
6.899999999998363
100
AcDbArc
 50
336.5123915073124
 51
338.0000000003199
  0
ARC
  5
1C7
330
1F
100
AcDbEntity
  8
0
  6
Continuous
 62
     7
100
AcDbCircle
 10
1347.54159056952
 20
216.4671709695812
 30
0.0
 40
6.900000000001153
100
AcDbArc
 50
18.0000000000717
 51
24.39616528279863
  0
ARC
  5
1C8
330
1F
100
AcDbEntity
  8
0
  6
Continuous
 62
     7
100
AcDbCircle
 10
1347.541590569513
 20
216.4671709695762
 30
0.0
 40
6.899999999999462
100
AcDbArc
 50
330.4081542060075
 51
336.5123915071103
  0
ARC
  5
1C9
330
1F
100
AcDbEntity
  8
0
  6
Continuous
 62
     7
100
AcDbCircle
 10
1347.541590569521
 20
216.467170969589
 30
0.0
 40
4.5
100
AcDbArc
 50
270.0
 51
90.0
  0
ARC
  5
1CA
330
1F
100
AcDbEntity
  8
0
  6
Continuous
 62
     7
100
AcDbCircle
 10
1347.541590569518
 20
216.4671709695878
 30
0.0
 40
7.000000000002495
100
AcDbArc
 50
42.00000000000575
 51
50.00000000000323
  0
ARC
  5
1CB
330
1F
100
AcDbEntity
  8
0
  6
Continuous
 62
     7
100
AcDbCircle
 10
1347.541590569518
 20
216.4671709695878
 30
0.0
 40
6.900000000002064
100
AcDbArc
 50
50.00000000000471
 51
58.00000000000352
  0
ARC
  5
1CC
330
1F
100
AcDbEntity
  8
0
  6
Continuous
 62
     7
100
AcDbCircle
 10
1347.541590569518
 20
216.4671709695878
 30
0.0
 40
7.000000000002181
100
AcDbArc
 50
58.00000000000572
 51
66.00000000000409
  0
ARC
  5
1CD
330
1F
100
AcDbEntity
  8
0
  6
Continuous
 62
     7
100
AcDbCircle
 10
1347.541590569518
 20
216.4671709695878
 30
0.0
 40
6.900000000002695
100
AcDbArc
 50
65.99999999999956
 51
73.99999999999815
  0
ARC
  5
1CE
330
1F
100
AcDbEntity
  8
0
  6
Continuous
 62
     7
100
AcDbCircle
 10
1347.541590569518
 20
216.4671709695863
 30
0.0
 40
6.900000000004206
100
AcDbArc
 50
81.99999999999898
 51
89.99999999999056
  0
ARC
  5
1CF
330
1F
100
AcDbEntity
  8
0
  6
Continuous
 62
     7
100
AcDbCircle
 10
1347.541590569518
 20
216.4671709695863
 30
0.0
 40
7.000000000004112
100
AcDbArc
 50
74.00000000000036
 51
82.0000000000001
  0
ARC
  5
1D0
330
1F
100
AcDbEntity
  8
0
  6
Continuous
 62
     7
100
AcDbCircle
 10
1271.551590569514
 20
198.4671709695897
 30
0.0
 40
5.100000000001955
100
AcDbArc
 50
0.000000000053
 51
304.7159487291453
  0
ARC
  5
1D1
330
1F
100
AcDbEntity
  8
0
  6
Continuous
 62
     7
100
AcDbCircle
 10
1275.123024517727
 20
198.023805165814
 30
0.0
 40
0.5000000000001289
100
AcDbArc
 50
192.9434047123029
 51
239.9999999998059
  0
ARC
  5
1D2
330
1F
100
AcDbEntity
  8
0
  6
Continuous
 62
     7
100
AcDbCircle
 10
1273.022917392642
 20
194.3865534239284
 30
0.0
 40
0.5000059854346796
100
AcDbArc
 50
59.98622052419266
 51
114.300885811517
  0
ARC
  5
1D3
330
1F
100
AcDbEntity
  8
0
  6
Continuous
 62
     7
100
AcDbCircle
 10
1274.331323988187
 20
194.4394417953343
 30
0.0
 40
0.2000000000006083
100
AcDbArc
 50
239.9999999997547
 51
304.7159487289515
  0
ARC
  5
1D4
330
1F
100
AcDbEntity
  8
0
  6
Continuous
 62
     7
100
AcDbCircle
 10
1271.540733065309
 20
197.7163416487255
 30
0.0
 40
2.399999999995998
100
AcDbArc
 50
0.00000000010517
 51
56.71358366178141
  0
ARC
  5
1D5
330
1F
100
AcDbEntity
  8
0
  6
Continuous
 62
     7
100
AcDbCircle
 10
1271.540733065307
 20
197.7163416487297
 30
0.0
 40
2.399999999994833
100
AcDbArc
 50
56.71358366168546
 51
123.2864163383569
  0
ARC
  5
1D6
330
1F
100
AcDbEntity
  8
0
  6
Continuous
 62
     7
100
AcDbCircle
 10
1270.746054806652
 20
197.5261725927138
 30
0.0
 40
8.720402650381432
100
AcDbArc
 50
40.29915357843344
 51
58.57090327745942
  0
ARC
  5
1D7
330
1F
100
AcDbEntity
  8
0
  6
Continuous
 62
     7
100
AcDbCircle
 10
1273.551590569514
 20
212.2671709695899
 30
0.0
 40
2.399999999999737
100
AcDbArc
 50
58.95177800652431
 51
159.9999999999967
  0
ARC
  5
1D8
330
1F
100
AcDbEntity
  8
0
  6
Continuous
 62
     7
100
AcDbCircle
 10
1270.836414725925
 20
207.4387106096247
 30
0.0
 40
1.499999999999077
100
AcDbArc
 50
159.9999999999837
 51
274.5577561144178
  0
ARC
  5
1D9
330
1F
100
AcDbEntity
  8
0
  6
Continuous
 62
     7
100
AcDbCircle
 10
1271.551590569518
 20
198.4671709695937
 30
0.0
 40
7.499999999994764
100
AcDbArc
 50
60.07356513345221
 51
94.55775611442274
  0
ARC
  5
1DA
330
1F
100
AcDbEntity
  8
0
  6
Continuous
 62
     7
100
AcDbCircle
 10
1271.540733065305
 20
198.4671709695887
 30
0.0
 40
5.100000000000877
100
AcDbArc
 50
304.7159487291328
 51
338.2980418694166
  0
ARC
  5
1DB
330
1F
100
AcDbEntity
  8
0
  6
Continuous
 62
     7
100
AcDbCircle
 10
1276.093420744801
 20
196.6552562660268
 30
0.0
 40
0.1999999999998555
100
AcDbArc
 50
338.2980418693926
 51
60.00000000002448
  0
ARC
  5
1DC
330
1F
100
AcDbEntity
  8
0
  6
Continuous
 62
     7
100
AcDbCircle
 10
1276.851590569514
 20
217.1671709695899
 30
0.0
 40
3.499999999999269
100
AcDbArc
 50
238.9517780065252
 51
0.0
  0
ARC
  5
1DD
330
1F
100
AcDbEntity
  8
0
  6
Continuous
 62
     7
100
AcDbCircle
 10
1271.540733065305
 20
198.4671709695887
 30
0.0
 40
5.10000000000183
100
AcDbArc
 50
338.2980418694166
 51
0.00000000006418
  0
ARC
  5
1DE
330
1F
100
AcDbEntity
  8
0
  6
Continuous
 62
     7
100
AcDbCircle
 10
1276.841112687402
 20
217.9851888517152
 30
0.0
 40
1.01047788210855
100
AcDbArc
 50
236.1819258985227
 51
0.00000000000483
  0
ARC
  5
1DF
330
1F
100
AcDbEntity
  8
0
  6
Continuous
 62
     7
100
AcDbCircle
 10
1273.551590569512
 20
213.0747109695946
 30
0.0
 40
4.899999999999107
100
AcDbArc
 50
56.18192589852931
 51
136.1676606092161
  0
ARC
  5
1E0
330
1F
100
AcDbEntity
  8
0
  6
Continuous
 62
     7
100
AcDbCircle
 10
1276.351590569514
 20
219.4671709695888
 30
0.0
 40
4.0
100
AcDbArc
 50
359.9999999999898
 51
90.00000000001303
  0
ARC
  5
1E1
330
1F
100
AcDbEntity
  8
0
  6
Continuous
 62
     7
100
AcDbCircle
 10
1276.35159056951
 20
219.4671709695929
 30
0.0
 40
1.5
100
AcDbArc
 50
0.0
 51
90.0
  0
ARC
  5
1E2
330
1F
100
AcDbEntity
  8
0
  6
Continuous
 62
     7
100
AcDbCircle
 10
1256.259130808236
 20
213.2671707308762
 30
0.0
 40
7.707540238715388
100
AcDbArc
 50
87.46545028843146
 51
316.1676606092114
  0
ARC
  5
1E3
330
1F
100
AcDbEntity
  8
0
  6
Continuous
 62
     7
100
AcDbCircle
 10
1317.541590569519
 20
212.2671709695957
 30
0.0
 40
2.399999999997934
100
AcDbArc
 50
20.00000000001264
 51
121.0482219934546
  0
ARC
  5
1E4
330
1F
100
AcDbEntity
  8
0
  6
Continuous
 62
     7
100
AcDbCircle
 10
1314.252068451632
 20
217.9851888517152
 30
0.0
 40
1.010477882109171
100
AcDbArc
 50
179.9999999999952
 51
303.8180741014666
  0
ARC
  5
1E5
330
1F
100
AcDbEntity
  8
0
  6
Continuous
 62
     7
100
AcDbCircle
 10
1317.541590569521
 20
213.0747109695945
 30
0.0
 40
4.900000000000283
100
AcDbArc
 50
43.83233939077652
 51
123.8180741014611
  0
ARC
  5
1E6
330
1F
100
AcDbEntity
  8
0
  6
Continuous
 62
     7
100
AcDbCircle
 10
1318.059299117097
 20
194.3864984699253
 30
0.0
 40
0.5000000000001095
100
AcDbArc
 50
65.68533471267516
 51
119.9999999999892
  0
ARC
  5
1E7
330
1F
100
AcDbEntity
  8
0
  6
Continuous
 62
     7
100
AcDbCircle
 10
1319.541590569517
 20
198.4671709695944
 30
0.0
 40
5.099999999999824
100
AcDbArc
 50
201.701958130589
 51
235.2840512708772
  0
ARC
  5
1E8
330
1F
100
AcDbEntity
  8
0
  6
Continuous
 62
     7
100
AcDbCircle
 10
1314.988902890023
 20
196.6552562660327
 30
0.0
 40
0.199999999999966
100
AcDbArc
 50
119.9999999999755
 51
201.7019581305771
  0
ARC
  5
1E9
330
1F
100
AcDbEntity
  8
0
  6
Continuous
 62
     7
100
AcDbCircle
 10
1316.750999646637
 20
194.4394417953401
 30
0.0
 40
0.2000000000001818
100
AcDbArc
 50
235.2840512708343
 51
300.0000000000319
  0
ARC
  5
1EA
330
1F
100
AcDbEntity
  8
0
  6
Continuous
 62
     7
100
AcDbCircle
 10
1315.959299117097
 20
198.0238051658199
 30
0.0
 40
0.4999999999998195
100
AcDbArc
 50
300.0000000000119
 51
354.3146652873503
  0
ARC
  5
1EB
330
1F
100
AcDbEntity
  8
0
  6
Continuous
 62
     7
100
AcDbCircle
 10
1314.74159056952
 20
219.4671709695943
 30
0.0
 40
1.499999999998607
100
AcDbArc
 50
89.9999999998871
 51
180.0000000000488
  0
ARC
  5
1EC
330
1F
100
AcDbEntity
  8
0
  6
Continuous
 62
     7
100
AcDbCircle
 10
1314.74159056952
 20
219.4671709695943
 30
0.0
 40
4.0
100
AcDbArc
 50
90.0
 51
180.0
  0
ARC
  5
1ED
330
1F
100
AcDbEntity
  8
0
  6
Continuous
 62
     7
100
AcDbCircle
 10
1314.241590569518
 20
217.1671709695958
 30
0.0
 40
3.499999999997954
100
AcDbArc
 50
180.0
 51
301.0482219935061
  0
ARC
  5
1EE
330
1F
100
AcDbEntity
  8
0
  6
Continuous
 62
     7
100
AcDbCircle
 10
1243.551590569514
 20
216.4671709695878
 30
0.0
 40
6.999999999997798
100
AcDbArc
 50
225.9999999999947
 51
234.0000000000055
  0
ARC
  5
1EF
330
1F
100
AcDbEntity
  8
0
  6
Continuous
 62
     7
100
AcDbCircle
 10
1243.551590569512
 20
216.467170969589
 30
0.0
 40
4.500000000000284
100
AcDbArc
 50
90.0
 51
270.0
  0
ARC
  5
1F0
330
1F
100
AcDbEntity
  8
0
  6
Continuous
 62
     7
100
AcDbCircle
 10
1243.551590569514
 20
216.4671709695878
 30
0.0
 40
6.89999999999746
100
AcDbArc
 50
266.0000000000196
 51
270.000000000017
  0
ARC
  5
1F1
330
1F
100
AcDbEntity
  8
0
  6
Continuous
 62
     7
100
AcDbCircle
 10
1243.551590569514
 20
216.4671709695878
 30
0.0
 40
6.99999999999724
100
AcDbArc
 50
258.0000000000151
 51
266.0000000000132
  0
ARC
  5
1F2
330
1F
100
AcDbEntity
  8
0
  6
Continuous
 62
     7
100
AcDbCircle
 10
1243.551590569514
 20
216.4671709695878
 30
0.0
 40
6.899999999997578
100
AcDbArc
 50
250.000000000003
 51
258.0000000000172
  0
ARC
  5
1F3
330
1F
100
AcDbEntity
  8
0
  6
Continuous
 62
     7
100
AcDbCircle
 10
1243.551590569514
 20
216.4671709695878
 30
0.0
 40
6.999999999996898
100
AcDbArc
 50
242.000000000008
 51
250.000000000006
  0
ARC
  5
1F4
330
1F
100
AcDbEntity
  8
0
  6
Continuous
 62
     7
100
AcDbCircle
 10
1243.551590569514
 20
216.4671709695878
 30
0.0
 40
6.899999999997201
100
AcDbArc
 50
234.0000000000035
 51
242.0000000000025
  0
ARC
  5
1F5
330
1F
100
AcDbEntity
  8
0
  6
Continuous
 62
     7
100
AcDbCircle
 10
1245.05159056952
 20
212.9671709695894
 30
0.0
 40
1.0
100
AcDbArc
 50
270.0000000000651
 51
0.00000000000489
  0
ARC
  5
1F6
330
1F
100
AcDbEntity
  8
0
  6
Continuous
 62
     7
100
AcDbCircle
 10
1243.551590569517
 20
216.4671709695887
 30
0.0
 40
6.900000000002233
100
AcDbArc
 50
122.0000000000068
 51
130.0000000000058
  0
ARC
  5
1F7
330
1F
100
AcDbEntity
  8
0
  6
Continuous
 62
     7
100
AcDbCircle
 10
1245.05159056952
 20
219.9671709695894
 30
0.0
 40
1.0
100
AcDbArc
 50
0.00000000000489
 51
90.0
  0
ARC
  5
1F8
330
1F
100
AcDbEntity
  8
0
  6
Continuous
 62
     7
100
AcDbCircle
 10
1243.551590569514
 20
216.4671709695878
 30
0.0
 40
6.900000000002677
100
AcDbArc
 50
90.0
 51
97.99999999999352
  0
ARC
  5
1F9
330
1F
100
AcDbEntity
  8
0
  6
Continuous
 62
     7
100
AcDbCircle
 10
1243.551590569514
 20
216.4671709695878
 30
0.0
 40
7.000000000002418
100
AcDbArc
 50
97.99999999999426
 51
105.999999999987
  0
ARC
  5
1FA
330
1F
100
AcDbEntity
  8
0
  6
Continuous
 62
     7
100
AcDbCircle
 10
1243.551590569514
 20
216.4671709695878
 30
0.0
 40
6.900000000002118
100
AcDbArc
 50
105.9999999999928
 51
113.9999999999849
  0
ARC
  5
1FB
330
1F
100
AcDbEntity
  8
0
  6
Continuous
 62
     7
100
AcDbCircle
 10
1243.551590569517
 20
216.4671709695887
 30
0.0
 40
7.000000000002323
100
AcDbArc
 50
114.0000000000124
 51
122.0000000000123
  0
ARC
  5
1FC
330
1F
100
AcDbEntity
  8
0
  6
Continuous
 62
     7
100
AcDbCircle
 10
1243.551590569514
 20
216.467170969586
 30
0.0
 40
6.999999999998227
100
AcDbArc
 50
178.0000000000035
 51
186.0000000000057
  0
ARC
  5
1FD
330
1F
100
AcDbEntity
  8
0
  6
Continuous
 62
     7
100
AcDbCircle
 10
1243.551590569514
 20
216.467170969586
 30
0.0
 40
6.899999999998725
100
AcDbArc
 50
170.0000000000032
 51
178.0000000000032
  0
ARC
  5
1FE
330
1F
100
AcDbEntity
  8
0
  6
Continuous
 62
     7
100
AcDbCircle
 10
1243.551590569522
 20
216.4671709695745
 30
0.0
 40
6.900000000000487
100
AcDbArc
 50
204.3961652826375
 51
209.5918457939715
  0
ARC
  5
1FF
330
1F
100
AcDbEntity
  8
0
  6
Continuous
 62
     7
100
AcDbCircle
 10
1243.551590569508
 20
216.4671709695728
 30
0.0
 40
6.899999999999266
100
AcDbArc
 50
153.9999999998791
 51
156.5123915068808
  0
ARC
  5
200
330
1F
100
AcDbEntity
  8
0
  6
Continuous
 62
     7
100
AcDbCircle
 10
1243.55159056951
 20
216.4671709696012
 30
0.0
 40
6.900000000000408
100
AcDbArc
 50
202.0000000001393
 51
204.3961652828807
  0
ARC
  5
201
330
1F
100
AcDbEntity
  8
0
  6
Continuous
 62
     7
100
AcDbCircle
 10
1243.551590569516
 20
216.4671709695842
 30
0.0
 40
6.900000000000556
100
AcDbArc
 50
187.9136870706818
 51
193.9999999999851
  0
ARC
  5
202
330
1F
100
AcDbEntity
  8
0
  6
Continuous
 62
     7
100
AcDbCircle
 10
1243.551590569514
 20
216.4671709695878
 30
0.0
 40
6.999999999999736
100
AcDbArc
 50
194.0000000000212
 51
202.0000000000225
  0
ARC
  5
203
330
1F
100
AcDbEntity
  8
0
  6
Continuous
 62
     7
100
AcDbCircle
 10
1243.551590569514
 20
216.4671709695929
 30
0.0
 40
6.899999999999707
100
AcDbArc
 50
186.0000000000619
 51
187.9136870707557
  0
ARC
  5
204
330
1F
100
AcDbEntity
  8
0
  6
Continuous
 62
     7
100
AcDbCircle
 10
1243.551590569502
 20
216.4671709696028
 30
0.0
 40
6.899999999999914
100
AcDbArc
 50
218.0000000001803
 51
226.0000000001593
  0
ARC
  5
205
330
1F
100
AcDbEntity
  8
0
  6
Continuous
 62
     7
100
AcDbCircle
 10
1243.551590569514
 20
216.467170969586
 30
0.0
 40
6.999999999999111
100
AcDbArc
 50
212.3923654858534
 51
218.0000000000139
  0
ARC
  5
206
330
1F
100
AcDbEntity
  8
0
  6
Continuous
 62
     7
100
AcDbCircle
 10
1243.551590569512
 20
216.4671709695911
 30
0.0
 40
7.000000000000027
100
AcDbArc
 50
210.0000000000528
 51
212.3923654858977
  0
ARC
  5
207
330
1F
100
AcDbEntity
  8
0
  6
Continuous
 62
     7
100
AcDbCircle
 10
1243.551590569477
 20
216.4671709696551
 30
0.0
 40
6.900000000001014
100
AcDbArc
 50
209.5918457947379
 51
210.00000000066
  0
ARC
  5
208
330
1F
100
AcDbEntity
  8
0
  6
Continuous
 62
     7
100
AcDbCircle
 10
1243.551590569517
 20
216.4671709695927
 30
0.0
 40
6.899999999999337
100
AcDbArc
 50
156.5123915070617
 51
162.0000000000629
  0
ARC
  5
209
330
1F
100
AcDbEntity
  8
0
  6
Continuous
 62
     7
100
AcDbCircle
 10
1243.551590569514
 20
216.467170969586
 30
0.0
 40
6.999999999998865
100
AcDbArc
 50
162.0000000000023
 51
170.0000000000011
  0
ARC
  5
20A
330
1F
100
AcDbEntity
  8
0
  6
Continuous
 62
     7
100
AcDbCircle
 10
1243.551590569514
 20
216.4671709695878
 30
0.0
 40
7.000000000001153
100
AcDbArc
 50
129.9999999999839
 51
137.999999999988
  0
ARC
  5
20B
330
1F
100
AcDbEntity
  8
0
  6
Continuous
 62
     7
100
AcDbCircle
 10
1243.551590569527
 20
216.4671709696023
 30
0.0
 40
6.900000000000659
100
AcDbArc
 50
138.0000000001426
 51
146.0000000001701
  0
ARC
  5
20C
330
1F
100
AcDbEntity
  8
0
  6
Continuous
 62
     7
100
AcDbCircle
 10
1243.551590569514
 20
216.467170969586
 30
0.0
 40
6.999999999999171
100
AcDbArc
 50
147.6076345141458
 51
153.9999999999994
  0
ARC
  5
20D
330
1F
100
AcDbEntity
  8
0
  6
Continuous
 62
     7
100
AcDbCircle
 10
1243.551590569514
 20
216.4671709695878
 30
0.0
 40
6.999999999997704
100
AcDbArc
 50
146.0000000000085
 51
147.6076345141584
  0
ARC
  5
20E
330
1F
100
AcDbEntity
  8
0
  6
Continuous
 62
     7
100
AcDbCircle
 10
1319.541590569517
 20
198.4671709695944
 30
0.0
 40
5.10000000000016
100
AcDbArc
 50
235.2840512708772
 51
180.0
  0
ARC
  5
20F
330
1F
100
AcDbEntity
  8
0
  6
Continuous
 62
     7
100
AcDbCircle
 10
1271.540733065307
 20
197.7163416487297
 30
0.0
 40
2.399999999995861
100
AcDbArc
 50
123.2864163383569
 51
0.00000000000475
  0
ARC
  5
210
330
1F
100
AcDbEntity
  8
0
  6
Continuous
 62
     7
100
AcDbCircle
 10
1319.541590569517
 20
197.7163416487303
 30
0.0
 40
2.399999999999876
100
AcDbArc
 50
123.2864163382939
 51
359.9999999999905
  0
ARC
  5
211
330
1F
100
AcDbEntity
  8
0
  6
Continuous
 62
     7
100
AcDbCircle
 10
1319.541590569517
 20
197.7163416487303
 30
0.0
 40
2.400000000000091
100
AcDbArc
 50
359.9999999999905
 51
56.71358366175473
  0
ARC
  5
212
330
1F
100
AcDbEntity
  8
0
  6
Continuous
 62
     7
100
AcDbCircle
 10
1319.541590569517
 20
197.7163416487303
 30
0.0
 40
2.399999999999252
100
AcDbArc
 50
56.71358366175473
 51
123.2864163382939
  0
ARC
  5
213
330
1F
100
AcDbEntity
  8
0
  6
Continuous
 62
     7
100
AcDbCircle
 10
1319.541590569517
 20
198.4671709695944
 30
0.0
 40
5.099999999999909
100
AcDbArc
 50
180.0
 51
201.701958130589
  0
ARC
  5
214
330
1F
100
AcDbEntity
  8
0
  6
Continuous
 62
     7
100
AcDbCircle
 10
1320.256766413108
 20
207.4387106096307
 30
0.0
 40
1.50000000000019
100
AcDbArc
 50
265.4422438855914
 51
19.99999999999842
  0
ARC
  5
215
330
1F
100
AcDbEntity
  8
0
  6
Continuous
 62
     7
100
AcDbCircle
 10
1319.398203997921
 20
198.3308931550352
 30
0.0
 40
7.476204603344462
100
AcDbArc
 50
139.7008464216073
 51
307.3869909432892
  0
ARC
  5
216
330
1F
100
AcDbEntity
  8
0
  6
Continuous
 62
     7
100
AcDbCircle
 10
1347.541590569519
 20
216.4671709695905
 30
0.0
 40
6.999999999998852
100
AcDbArc
 50
337.9999999999889
 51
345.9999999999903
  0
ARC
  5
217
330
1F
100
AcDbEntity
  8
0
  6
Continuous
 62
     7
100
AcDbCircle
 10
1347.541590569519
 20
216.4671709695905
 30
0.0
 40
6.999999999999236
100
AcDbArc
 50
353.9999999999917
 51
1.99999999999266
  0
ARC
  5
218
330
1F
100
AcDbEntity
  8
0
  6
Continuous
 62
     7
100
AcDbCircle
 10
1347.541590569519
 20
216.4671709695905
 30
0.0
 40
6.899999999999721
100
AcDbArc
 50
345.9999999999924
 51
353.9999999999916
  0
ARC
  5
219
330
1F
100
AcDbEntity
  8
0
  6
Continuous
 62
     7
100
AcDbCircle
 10
1347.541590569703
 20
216.4671709699085
 30
0.0
 40
6.899999999999463
100
AcDbArc
 50
329.9999999969418
 51
330.4081542028285
  0
ARC
  5
21A
330
1F
100
AcDbEntity
  8
0
  6
Continuous
 62
     7
100
AcDbCircle
 10
1347.54159056952
 20
216.4671709695886
 30
0.0
 40
6.899999999997725
100
AcDbArc
 50
313.9999999999945
 51
321.9999999999951
  0
ARC
  5
21B
330
1F
100
AcDbEntity
  8
0
  6
Continuous
 62
     7
100
AcDbCircle
 10
1347.54159056952
 20
216.4671709695886
 30
0.0
 40
6.999999999997675
100
AcDbArc
 50
305.9999999999906
 51
313.999999999996
  0
ARC
  5
21C
330
1F
100
AcDbEntity
  8
0
  6
Continuous
 62
     7
100
AcDbCircle
 10
1347.54159056952
 20
216.4671709695874
 30
0.0
 40
6.89999999999644
100
AcDbArc
 50
297.9999999999924
 51
305.9999999999986
  0
ARC
  5
21D
330
1F
100
AcDbEntity
  8
0
  6
Continuous
 62
     7
100
AcDbCircle
 10
1347.54159056952
 20
216.4671709695874
 30
0.0
 40
6.999999999996516
100
AcDbArc
 50
289.9999999999881
 51
297.9999999999953
  0
ARC
  5
21E
330
1F
100
AcDbEntity
  8
0
  6
Continuous
 62
     7
100
AcDbCircle
 10
1347.54159056952
 20
216.4671709695874
 30
0.0
 40
6.899999999996696
100
AcDbArc
 50
281.9999999999854
 51
289.9999999999914
  0
ARC
  5
21F
330
1F
100
AcDbEntity
  8
0
  6
Continuous
 62
     7
100
AcDbCircle
 10
1347.541590569516
 20
216.4671709696001
 30
0.0
 40
6.900000000000883
100
AcDbArc
 50
7.91368707059164
 51
9.99999999991012
  0
ARC
  5
220
330
1F
100
AcDbEntity
  8
0
  6
Continuous
 62
     7
100
AcDbCircle
 10
1347.541590569518
 20
216.4671709695863
 30
0.0
 40
6.900000000000421
100
AcDbArc
 50
2.00000000002752
 51
7.9136870707071
  0
ARC
  5
221
330
1F
100
AcDbEntity
  8
0
  6
Continuous
 62
     7
100
AcDbCircle
 10
1347.541590569517
 20
216.4671709695896
 30
0.0
 40
7.000000000001451
100
AcDbArc
 50
9.99999999999857
 51
17.99999999999469
  0
ARC
  5
222
330
1F
100
AcDbEntity
  8
1
  6
Continuous
 62
     7
100
AcDbCircle
 10
1271.548350216687
 20
197.6671709695941
 30
0.0
 40
3.096771175734404
100
AcDbArc
 50
64.98346406502014
 51
294.1870724687821
  0
ARC
  5
223
330
1F
100
AcDbEntity
  8
1
  6
Continuous
 62
     7
100
AcDbCircle
 10
1271.548350216687
 20
197.6671709695941
 30
0.0
 40
3.096771175734672
100
AcDbArc
 50
4.56674571776062
 51
64.98346406502014
  0
ARC
  5
224
330
1F
100
AcDbEntity
  8
0
  6
Continuous
 62
     7
100
AcDbCircle
 10
1319.541590569517
 20
197.6671709695941
 30
0.0
 40
3.099999999999967
100
AcDbArc
 50
245.6853347126517
 51
0.0
  0
ARC
  5
225
330
1F
100
AcDbEntity
  8
1
  6
Continuous
 62
     7
100
AcDbCircle
 10
1319.541590569517
 20
197.6671709695941
 30
0.0
 40
3.099999999999909
100
AcDbArc
 50
0.0
 51
172.0883298620011
  0
ARC
  5
226
330
1F
100
AcDbEntity
  8
Sichtbare_Kanten_TC_020513_DIN_
  6
Continuous
 62
     7
100
AcDbCircle
 10
1294.041590569517
 20
189.9795626023629
 30
0.0
 40
0.375
100
AcDbArc
 50
180.0
 51
0.0
  0
ARC
  5
227
330
1F
100
AcDbEntity
  8
Sichtbare_Kanten_TC_020513_DIN_
  6
Continuous
 62
     7
100
AcDbCircle
 10
1294.041590569517
 20
195.1271591566279
 30
0.0
 40
0.3749999999994408
100
AcDbArc
 50
35.90957617703826
 51
180.0
  0
ARC
  5
228
330
1F
100
AcDbEntity
  8
Sichtbare_Kanten_TC_020513_DIN_
  6
Continuous
 62
     7
100
AcDbCircle
 10
1297.041590569517
 20
195.1271591566279
 30
0.0
 40
0.375
100
AcDbArc
 50
0.0
 51
144.0904238230432
  0
ARC
  5
229
330
1F
100
AcDbEntity
  8
Sichtbare_Kanten_TC_020513_DIN_
  6
Continuous
 62
     7
100
AcDbCircle
 10
1297.041590569517
 20
188.2055241408249
 30
0.0
 40
0.375
100
AcDbArc
 50
180.0
 51
0.0
  0
ARC
  5
22A
330
1F
100
AcDbEntity
  8
Sichtbare_Kanten_TC_020513_DIN_
  6
Continuous
 62
     7
100
AcDbCircle
 10
1292.466590569517
 20
194.2185053104739
 30
0.0
 40
0.375
100
AcDbArc
 50
0.0
 51
180.0
  0
ARC
  5
22B
330
1F
100
AcDbEntity
  8
Sichtbare_Kanten_TC_020513_DIN_
  6
Continuous
 62
     7
100
AcDbCircle
 10
1295.541590569517
 20
187.3401395254399
 30
0.0
 40
0.375000000000055
100
AcDbArc
 50
240.0183606310678
 51
60.01836063121822
  0
ARC
  5
22C
330
1F
100
AcDbEntity
  8
Sichtbare_Kanten_TC_020513_DIN_
  6
Continuous
 62
     7
100
AcDbCircle
 10
1292.466590569517
 20
189.1141779869779
 30
0.0
 40
0.375
100
AcDbArc
 50
180.0
 51
240.0183606310978
  0
ARC
  5
22D
330
1F
100
AcDbEntity
  8
Sichtbare_Kanten_TC_020513_DIN_
  6
Continuous
 62
     7
100
AcDbCircle
 10
1290.966590569517
 20
189.9795626023629
 30
0.0
 40
0.375
100
AcDbArc
 50
180.0
 51
0.0
  0
ARC
  5
22E
330
1F
100
AcDbEntity
  8
Sichtbare_Kanten_TC_020513_DIN_
  6
Continuous
 62
     7
100
AcDbCircle
 10
1290.966590569517
 20
193.3531206950889
 30
0.0
 40
0.375
100
AcDbArc
 50
0.0
 51
180.0
  0
ARC
  5
22F
330
1F
100
AcDbEntity
  8
Sichtbare_Kanten_TC_020513_DIN_
  6
Continuous
 62
     7
100
AcDbCircle
 10
1298.541590569517
 20
194.2617745412429
 30
0.0
 40
0.3749999999994869
100
AcDbArc
 50
60.01836063121822
 51
180.0
  0
ARC
  5
230
330
1F
100
AcDbEntity
  8
Sichtbare_Kanten_TC_020513_DIN_
  6
Continuous
 62
     7
100
AcDbCircle
 10
1300.791590569517
 20
192.9636976181659
 30
0.0
 40
0.375000000000055
100
AcDbArc
 50
240.0183606310678
 51
60.01836063121822
  0
ARC
  5
231
330
1F
100
AcDbEntity
  8
Sichtbare_Kanten_TC_020513_DIN_
  6
Continuous
 62
     7
100
AcDbCircle
 10
1300.791590569517
 20
191.6663416487259
 30
0.0
 40
0.375
100
AcDbArc
 50
270.0
 51
90.0
  0
ARC
  5
232
330
1F
100
AcDbEntity
  8
Sichtbare_Kanten_TC_020513_DIN_
  6
Continuous
 62
     7
100
AcDbCircle
 10
1300.791590569517
 20
190.3689856792859
 30
0.0
 40
0.3749999999994869
100
AcDbArc
 50
299.9816393687818
 51
119.9816393689344
  0
ARC
  5
233
330
1F
100
AcDbEntity
  8
Sichtbare_Kanten_TC_020513_DIN_
  6
Continuous
 62
     7
100
AcDbCircle
 10
1298.541590569517
 20
189.0709087562089
 30
0.0
 40
0.375
100
AcDbArc
 50
180.0
 51
299.9816393687818
  0
CIRCLE
  5
234
330
1F
100
AcDbEntity
  8
1
  6
Continuous
 62
     7
100
AcDbCircle
 10
1484.391589750388
 20
148.1671709695886
 30
0.0
 40
16.0
  0
CIRCLE
  5
235
330
1F
100
AcDbEntity
  8
0
  6
Continuous
 62
     7
100
AcDbCircle
 10
1263.051590569512
 20
202.4671709695918
 30
0.0
 40
3.0
  0
CIRCLE
  5
236
330
1F
100
AcDbEntity
  8
0
  6
Continuous
 62
     7
100
AcDbCircle
 10
1328.04159056952
 20
202.4671709695918
 30
0.0
 40
3.0
  0
SPLINE
  5
237
330
1F
100
AcDbEntity
  8
0
  6
Continuous
 62
     7
100
AcDbSpline
210
0.0
220
0.0
230
1.0
 70
     8
 71
     3
 72
     9
 73
     5
 74
     3
 42
0.000000001
 43
0.0000000001
 44
0.00000001
 40
0.0
 40
0.0
 40
0.0
 40
0.0
 40
1.457613083640794
 40
2.773251169518149
 40
2.773251169518149
 40
2.773251169518149
 40
2.773251169518149
 10
1462.641589750384
 20
206.3762371895455
 30
0.0
 10
1462.166715556327
 20
206.1748142925377
 30
0.0
 10
1461.2632210616
 20
205.7915875562611
 30
0.0
 10
1461.011165570488
 20
204.8497456720608
 30
0.0
 10
1460.891589750384
 20
204.4029332521626
 30
0.0
 11
1462.641589750384
 21
206.3762371895455
 31
0.0
 11
1461.396928780719
 21
205.6176496987349
 31
0.0
 11
1460.891589750384
 21
204.4029332521626
 31
0.0
  0
SPLINE
  5
238
330
1F
100
AcDbEntity
  8
0
  6
Continuous
 62
     7
100
AcDbSpline
210
0.0
220
0.0
230
1.0
 70
     8
 71
     3
 72
     9
 73
     5
 74
     3
 42
0.000000001
 43
0.0000000001
 44
0.00000001
 40
0.0
 40
0.0
 40
0.0
 40
0.0
 40
0.6091954483506833
 40
1.269154091890148
 40
1.269154091890148
 40
1.269154091890148
 40
1.269154091890148
 10
1463.891589750383
 20
206.5733208453442
 30
0.0
 10
1463.687983635978
 20
206.5651212189904
 30
0.0
 10
1463.263805266665
 20
206.5480386858986
 30
0.0
 10
1462.854452637093
 20
206.4350113054
 30
0.0
 10
1462.641589750384
 20
206.3762371895455
 30
0.0
 11
1463.891589750383
 21
206.5733208453442
 31
0.0
 11
1463.28418727486
 21
206.5266161565903
 31
0.0
 11
1462.641589750384
 21
206.3762371895455
 31
0.0
  0
SPLINE
  5
239
330
1F
100
AcDbEntity
  8
0
  6
Continuous
 62
     7
100
AcDbSpline
210
0.0
220
0.0
230
1.0
 70
     8
 71
     3
 72
     9
 73
     5
 74
     3
 42
0.000000001
 43
0.0000000001
 44
0.00000001
 40
0.0
 40
0.0
 40
0.0
 40
0.0
 40
1.283049972625374
 40
2.771223310600386
 40
2.771223310600386
 40
2.771223310600386
 40
2.771223310600386
 10
1507.891589750383
 20
204.402933252168
 30
0.0
 10
1507.775208896836
 20
204.8376386650035
 30
0.0
 10
1507.523841170089
 20
205.7765465697285
 30
0.0
 10
1506.623777918246
 20
206.1669632440308
 30
0.0
 10
1506.140435364421
 20
206.3766207129467
 30
0.0
 11
1507.891589750383
 21
204.402933252168
 31
0.0
 11
1507.403392698241
 21
205.5894748141877
 31
0.0
 11
1506.140435364421
 21
206.3766207129467
 31
0.0
  0
SPLINE
  5
23A
330
1F
100
AcDbEntity
  8
0
  6
Continuous
 62
     7
100
AcDbSpline
210
0.0
220
0.0
230
1.0
 70
     8
 71
     3
 72
     9
 73
     5
 74
     3
 42
0.000000001
 43
0.0000000001
 44
0.00000001
 40
0.0
 40
0.0
 40
0.0
 40
0.0
 40
0.56849310904652
 40
1.164929491429613
 40
1.164929491429613
 40
1.164929491429613
 40
1.164929491429613
 10
1506.041589750383
 20
206.4078895570655
 30
0.0
 10
1505.857527850033
 20
206.455448298874
 30
0.0
 10
1505.480356808532
 20
206.5529034287435
 30
0.0
 10
1505.090958944912
 20
206.5664070754893
 30
0.0
 10
1504.891589750383
 20
206.573320845349
 30
0.0
 11
1506.041589750383
 21
206.4078895570655
 31
0.0
 11
1505.486492225907
 21
206.5305727025345
 31
0.0
 11
1504.891589750383
 21
206.573320845349
 31
0.0
  0
SPLINE
  5
23B
330
1F
100
AcDbEntity
  8
0
  6
Continuous
 62
     7
100
AcDbSpline
210
0.0
220
0.0
230
1.0
 70
     8
 71
     3
 72
     9
 73
     5
 74
     3
 42
0.000000001
 43
0.0000000001
 44
0.00000001
 40
0.0
 40
0.0
 40
0.0
 40
0.0
 40
0.0517119446906083
 40
0.1036761072109195
 40
0.1036761072109195
 40
0.1036761072109195
 40
0.1036761072109195
 10
1506.140435364421
 20
206.3766207129467
 30
0.0
 10
1506.124056454915
 20
206.3819942523334
 30
0.0
 10
1506.091218743947
 20
206.3927675207529
 30
0.0
 10
1506.058159558452
 20
206.4028407161582
 30
0.0
 10
1506.041589750383
 20
206.4078895570655
 30
0.0
 11
1506.140435364421
 21
206.3766207129467
 31
0.0
 11
1506.091243533271
 21
206.3925671539025
 31
0.0
 11
1506.041589750383
 21
206.4078895570655
 31
0.0
  0
MTEXT
  5
23C
330
1F
100
AcDbEntity
  8
1
 62
     7
100
AcDbMText
 10
1310.828024193549
 20
-31.90020161290403
 30
0.0
 40
6.0
 41
0.0
 71
     4
 72
     1
  1
Radice
  7
CONVERTER_11
 73
     1
 44
1.32052821128451
  0
MTEXT
  5
23D
330
1F
100
AcDbEntity
  8
1
 62
     7
100
AcDbMText
 10
1310.828024193549
 20
-16.87892277139207
 30
0.0
 40
6.0
 41
0.0
 71
     4
 72
     1
  1
14/01/14
  7
CONVERTER_11
 73
     1
 44
1.32052821128451
  0
MTEXT
  5
23E
330
1F
100
AcDbEntity
  8
1
 62
     7
100
AcDbMText
 10
1582.980625571034
 20
-29.27892277139193
 30
0.0
 40
9.0
 41
0.0
 71
     5
 72
     1
  1
1:1
  7
CONVERTER_11
 73
     1
 44
1.32052821128451
  0
MTEXT
  5
240
330
1F
100
AcDbEntity
  8
1
 62
     7
100
AcDbMText
 10
1358.180625571034
 20
-24.40020161290403
 30
0.0
 40
9.0
 41
0.0
 71
     4
 72
     1
  1
MAPN 16.32\PSurface monting housing, 2 levers, M32 - LS TYPE
  7
CONVERTER_12
 73
     1
 44
0.90036014405762
  0
DIMENSION
  5
24C
330
1F
100
AcDbEntity
  8
1
100
AcDbDimension
  2
*D3
 10
1359.828224523702
 20
255.447635782895
 30
0.0
 11
1295.546590569516
 21
262.447635782895
 31
0.0
 70
    32
  1
130
 71
     5
 42
-1.0
 53
0.00013888888889
  3
ME10_DIM_10
100
AcDbAlignedDimension
 13
1231.264956615331
 23
198.4671709695897
 33
0.0
 14
1359.828224523702
 24
198.4671709695897
 34
0.0
100
AcDbRotatedDimension
  0
DIMENSION
  5
257
330
1F
100
AcDbEntity
  8
1
100
AcDbDimension
  2
*D4
 10
1217.041590569517
 20
127.6671709695904
 30
0.0
 11
1210.041590569517
 21
168.1667563091582
 31
0.0
 70
    32
  1
<>
 71
     5
 42
-1.0
 53
90.0
  3
ME10_DIM_11
100
AcDbAlignedDimension
 13
1244.658530164149
 23
208.6663416487259
 33
0.0
 14
1237.041590569517
 24
127.6671709695904
 34
0.0
 50
90.0
100
AcDbRotatedDimension
  0
DIMENSION
  5
262
330
1F
100
AcDbEntity
  8
1
100
AcDbDimension
  2
*D5
 10
1461.891589750391
 20
107.6671709695857
 30
0.0
 11
1484.391589750391
 21
114.6671709695857
 31
0.0
 70
    32
  1
<>
 71
     5
 42
-1.0
 53
0.00013888888889
  3
ME10_DIM_12
100
AcDbAlignedDimension
 13
1506.891589750391
 23
125.318454772297
 33
0.0
 14
1461.891589750391
 24
125.318454772297
 34
0.0
100
AcDbRotatedDimension
  0
DIMENSION
  5
26D
330
1F
100
AcDbEntity
  8
1
100
AcDbDimension
  2
*D6
 10
1455.891589750391
 20
87.66717096958567
 30
0.0
 11
1484.391589750391
 21
94.66717096958567
 31
0.0
 70
    32
  1
<>
 71
     5
 42
-1.0
 53
0.00013888888889
  3
ME10_DIM_13
100
AcDbAlignedDimension
 13
1512.891589750391
 23
127.6671709695917
 33
0.0
 14
1455.891589750391
 24
127.6671709695853
 34
0.0
100
AcDbRotatedDimension
  0
DIMENSION
  5
278
330
1F
100
AcDbEntity
  8
1
100
AcDbDimension
  2
*D7
 10
1455.391589750381
 20
243.467170969589
 30
0.0
 11
1484.391589750382
 21
250.467170969589
 31
0.0
 70
    32
  1
<>
 71
     5
 42
-1.0
 53
0.00013888888889
  3
ME10_DIM_14
100
AcDbAlignedDimension
 13
1513.391589750382
 23
223.4671709695964
 33
0.0
 14
1455.391589750381
 24
223.4671709695898
 34
0.0
100
AcDbRotatedDimension
  0
DIMENSION
  5
285
330
1F
100
AcDbEntity
  8
1
100
AcDbDimension
  2
*D8
 10
1532.89158975039
 20
131.6671709695917
 30
0.0
 11
1525.89158975039
 21
141.3726685490824
 31
0.0
 70
    32
  1
<>
 71
     5
 42
-1.0
 53
90.0
  3
ME10_DIM_15
100
AcDbAlignedDimension
 13
1512.891589750391
 23
127.6671709695917
 33
0.0
 14
1512.89158975039
 24
131.6671709695917
 34
0.0
 50
90.0
100
AcDbRotatedDimension
  0
DIMENSION
  5
290
330
1F
100
AcDbEntity
  8
1
100
AcDbDimension
  2
*D9
 10
1374.041590569517
 20
164.1671709695885
 30
0.0
 11
1367.041590569517
 21
148.1671709695885
 31
0.0
 70
    32
  1
<>
 71
     5
 42
-1.0
 53
90.0
  3
ME10_DIM_16
100
AcDbAlignedDimension
 13
1354.041590569517
 23
132.1671709695885
 33
0.0
 14
1354.041590569517
 24
164.1671709695885
 34
0.0
 50
90.0
100
AcDbRotatedDimension
  0
DIMENSION
  5
29B
330
1F
100
AcDbEntity
  8
1
100
AcDbDimension
  2
*D10
 10
1243.041590569517
 20
108.1671709695906
 30
0.0
 11
1295.541590569517
 21
115.1671709695906
 31
0.0
 70
    32
  1
<>
 71
     5
 42
-1.0
 53
0.00013888888889
  3
ME10_DIM_17
100
AcDbAlignedDimension
 13
1348.041590569517
 23
125.318454772297
 33
0.0
 14
1243.041590569517
 24
125.318454772297
 34
0.0
100
AcDbRotatedDimension
  0
DIMENSION
  5
2A6
330
1F
100
AcDbEntity
  8
1
100
AcDbDimension
  2
*D11
 10
1237.041590569517
 20
88.16717096959059
 30
0.0
 11
1295.541590569517
 21
95.16717096959059
 31
0.0
 70
    32
  1
<>
 71
     5
 42
-1.0
 53
0.00013888888889
  3
ME10_DIM_18
100
AcDbAlignedDimension
 13
1354.041590569517
 23
127.6671709695904
 33
0.0
 14
1237.041590569517
 24
127.6671709695904
 34
0.0
100
AcDbRotatedDimension
  0
ENDSEC
  0
SECTION
  2
OBJECTS
  0
DICTIONARY
  5
C
330
0
100
AcDbDictionary
281
     1
  3
ACAD_GROUP
350
D
  3
ACAD_LAYOUT
350
1A
  3
ACAD_MATERIAL
350
3B
  3
ACAD_MLEADERSTYLE
350
2A9
  3
ACAD_MLINESTYLE
350
17
  3
ACAD_PLOTSETTINGS
350
19
  3
ACAD_PLOTSTYLENAME
350
E
  3
ACAD_VISUALSTYLE
350
2A
  3
AcDbVariableDictionary
350
2A7
  0
DICTIONARY
  5
D
102
{ACAD_REACTORS
330
C
102
}
330
C
100
AcDbDictionary
281
     1
  0
DICTIONARY
  5
1A
102
{ACAD_REACTORS
330
C
102
}
330
C
100
AcDbDictionary
281
     1
  3
Layout1
350
1E
  3
Layout2
350
26
  3
Model
350
22
  0
DICTIONARY
  5
3B
102
{ACAD_REACTORS
330
C
102
}
330
C
100
AcDbDictionary
281
     1
  3
ByBlock
350
3D
  3
ByLayer
350
3C
  3
Global
350
3E
  0
DICTIONARY
  5
2A9
102
{ACAD_REACTORS
330
C
102
}
330
C
100
AcDbDictionary
281
     1
  0
DICTIONARY
  5
17
102
{ACAD_REACTORS
330
C
102
}
330
C
100
AcDbDictionary
281
     1
  3
Standard
350
18
  0
DICTIONARY
  5
19
102
{ACAD_REACTORS
330
C
102
}
330
C
100
AcDbDictionary
281
     1
  0
ACDBDICTIONARYWDFLT
  5
E
102
{ACAD_REACTORS
330
C
102
}
330
C
100
AcDbDictionary
281
     1
  3
Normal
350
F
100
AcDbDictionaryWithDefault
340
F
  0
DICTIONARY
  5
2A
102
{ACAD_REACTORS
330
C
102
}
330
C
100
AcDbDictionary
281
     1
  3
2dWireframe
350
2F
  3
3D Hidden
350
31
  3
3dWireframe
350
30
  3
Basic
350
32
  3
Brighten
350
36
  3
ColorChange
350
3A
  3
Conceptual
350
34
  3
Dim
350
35
  3
Facepattern
350
39
  3
Flat
350
2B
  3
FlatWithEdges
350
2C
  3
Gouraud
350
2D
  3
GouraudWithEdges
350
2E
  3
Linepattern
350
38
  3
Realistic
350
33
  3
Thicken
350
37
  0
DICTIONARY
  5
2A7
102
{ACAD_REACTORS
330
C
102
}
330
C
100
AcDbDictionary
281
     1
  3
DIMASSOC
350
2AA
  3
HIDETEXT
350
2AB
  0
LAYOUT
  5
1E
102
{ACAD_REACTORS
330
1A
102
}
330
1A
100
AcDbPlotSettings
  1

  2
none_device
  4

  6

 40
0.0
 41
0.0
 42
0.0
 43
0.0
 44
0.0
 45
0.0
 46
0.0
 47
0.0
 48
0.0
 49
0.0
140
0.0
141
0.0
142
1.0
143
1.0
 70
   688
 72
     0
 73
     0
 74
     5
  7

 75
    16
147
1.0
148
0.0
149
0.0
100
AcDbLayout
  1
Layout1
 70
     1
 71
     1
 10
0.0
 20
0.0
 11
12.0
 21
9.0
 12
0.0
 22
0.0
 32
0.0
 14
1.00000000000000E+20
 24
1.00000000000000E+20
 34
1.00000000000000E+20
 15
-1.00000000000000E+20
 25
-1.00000000000000E+20
 35
-1.00000000000000E+20
146
0.0
 13
0.0
 23
0.0
 33
0.0
 16
1.0
 26
0.0
 36
0.0
 17
0.0
 27
1.0
 37
0.0
 76
     0
330
1B
  0
LAYOUT
  5
26
102
{ACAD_REACTORS
330
1A
102
}
330
1A
100
AcDbPlotSettings
  1

  2
none_device
  4

  6

 40
0.0
 41
0.0
 42
0.0
 43
0.0
 44
0.0
 45
0.0
 46
0.0
 47
0.0
 48
0.0
 49
0.0
140
0.0
141
0.0
142
1.0
143
1.0
 70
   688
 72
     0
 73
     0
 74
     5
  7

 75
    16
147
1.0
148
0.0
149
0.0
100
AcDbLayout
  1
Layout2
 70
     1
 71
     2
 10
0.0
 20
0.0
 11
0.0
 21
0.0
 12
0.0
 22
0.0
 32
0.0
 14
0.0
 24
0.0
 34
0.0
 15
0.0
 25
0.0
 35
0.0
146
0.0
 13
0.0
 23
0.0
 33
0.0
 16
1.0
 26
0.0
 36
0.0
 17
0.0
 27
1.0
 37
0.0
 76
     0
330
23
  0
LAYOUT
  5
22
102
{ACAD_REACTORS
330
1A
102
}
330
1A
100
AcDbPlotSettings
  1

  2
none_device
  4

  6

 40
0.0
 41
0.0
 42
0.0
 43
0.0
 44
0.0
 45
0.0
 46
0.0
 47
0.0
 48
0.0
 49
0.0
140
0.0
141
0.0
142
1.0
143
1.0
 70
  1712
 72
     0
 73
     0
 74
     0
  7

 75
     0
147
1.0
148
0.0
149
0.0
100
AcDbLayout
  1
Model
 70
     1
 71
     0
 10
0.0
 20
0.0
 11
12.0
 21
9.0
 12
0.0
 22
0.0
 32
0.0
 14
1069.628024193549
 24
-49.40020161290402
 34
0.0
 15
1663.628024193549
 25
370.5997983870962
 35
0.0
146
0.0
 13
0.0
 23
0.0
 33
0.0
 16
1.0
 26
0.0
 36
0.0
 17
0.0
 27
1.0
 37
0.0
 76
     0
330
1F
331
29
  0
MATERIAL
  5
3D
102
{ACAD_REACTORS
330
3B
102
}
102
{ACAD_XDICTIONARY
360
2CE
102
}
330
3B
100
AcDbMaterial
  1
ByBlock
  0
MATERIAL
  5
3C
102
{ACAD_REACTORS
330
3B
102
}
102
{ACAD_XDICTIONARY
360
2CC
102
}
330
3B
100
AcDbMaterial
  1
ByLayer
  0
MATERIAL
  5
3E
102
{ACAD_REACTORS
330
3B
102
}
102
{ACAD_XDICTIONARY
360
2D0
102
}
330
3B
100
AcDbMaterial
  1
Global
  0
MLINESTYLE
  5
18
102
{ACAD_REACTORS
330
17
102
}
330
17
100
AcDbMlineStyle
  2
Standard
 70
     0
  3

 62
   256
 51
90.0
 52
90.0
 71
     2
 49
0.5
 62
   256
  6
BYLAYER
 49
-0.5
 62
   256
  6
BYLAYER
  0
ACDBPLACEHOLDER
  5
F
102
{ACAD_REACTORS
330
E
102
}
330
E
  0
VISUALSTYLE
  5
2F
102
{ACAD_REACTORS
330
2A
102
}
102
{ACAD_XDICTIONARY
360
2B4
102
}
330
2A
100
AcDbVisualStyle
  2
2dWireframe
 70
     4
 71
     0
 72
     2
 73
     0
 90
        0
 40
-0.6
 41
-30.0
 62
     5
 63
     7
 74
     1
 91
        4
 64
     7
 65
   257
 75
     1
175
     1
 42
1.0
 92
        0
 66
   257
 43
1.0
 76
     1
 77
     6
 78
     2
 67
     7
 79
     5
170
     0
171
     0
290
     0
174
     0
 93
        1
 44
0.0
173
     0
291
     0
 45
0.0
1001
ACAD
1000
AcDbSavedByObjectVersion
1070
     0
  0
VISUALSTYLE
  5
31
102
{ACAD_REACTORS
330
2A
102
}
102
{ACAD_XDICTIONARY
360
2B8
102
}
330
2A
100
AcDbVisualStyle
  2
3D Hidden
 70
     6
 71
     1
 72
     2
 73
     2
 90
        0
 40
-0.6
 41
-30.0
 62
     5
 63
     7
 74
     2
 91
        2
 64
     7
 65
   257
 75
     2
175
     1
 42
40.0
 92
        0
 66
   257
 43
1.0
 76
     1
 77
     6
 78
     2
 67
     7
 79
     3
170
     0
171
     0
290
     0
174
     0
 93
        1
 44
0.0
173
     0
291
     0
 45
0.0
1001
ACAD
1000
AcDbSavedByObjectVersion
1070
     0
  0
VISUALSTYLE
  5
30
102
{ACAD_REACTORS
330
2A
102
}
102
{ACAD_XDICTIONARY
360
2B6
102
}
330
2A
100
AcDbVisualStyle
  2
3dWireframe
 70
     5
 71
     0
 72
     2
 73
     0
 90
        0
 40
-0.6
 41
-30.0
 62
     5
 63
     7
 74
     1
 91
        4
 64
     7
 65
   257
 75
     1
175
     1
 42
1.0
 92
        0
 66
   257
 43
1.0
 76
     1
 77
     6
 78
     2
 67
     7
 79
     5
170
     0
171
     0
290
     0
174
     0
 93
        1
 44
0.0
173
     0
291
     0
 45
0.0
1001
ACAD
1000
AcDbSavedByObjectVersion
1070
     0
  0
VISUALSTYLE
  5
32
102
{ACAD_REACTORS
330
2A
102
}
102
{ACAD_XDICTIONARY
360
2BA
102
}
330
2A
100
AcDbVisualStyle
  2
Basic
 70
     7
 71
     1
 72
     0
 73
     1
 90
        0
 40
-0.6
 41
-30.0
 62
     5
 63
     7
 74
     0
 91
        4
 64
     7
 65
   257
 75
     1
175
     1
 42
1.0
 92
        8
 66
     7
 43
1.0
 76
     1
 77
     6
 78
     2
 67
     7
 79
     5
170
     0
171
     0
290
     0
174
     0
 93
        1
 44
0.0
173
     0
291
     1
 45
0.0
1001
ACAD
1000
AcDbSavedByObjectVersion
1070
     0
  0
VISUALSTYLE
  5
36
102
{ACAD_REACTORS
330
2A
102
}
102
{ACAD_XDICTIONARY
360
2C2
102
}
330
2A
100
AcDbVisualStyle
  2
Brighten
 70
    12
 71
     2
 72
     2
 73
     0
 90
        0
 40
-0.6
 41
-30.0
 62
     5
 63
     7
 74
     1
 91
        4
 64
     7
 65
   257
 75
     1
175
     1
 42
1.0
 92
        8
 66
     7
 43
1.0
 76
     1
 77
     6
 78
     2
 67
     7
 79
     5
170
     0
171
     0
290
     0
174
     0
 93
        1
 44
50.0
173
     0
291
     1
 45
0.0
1001
ACAD
1000
AcDbSavedByObjectVersion
1070
     0
  0
VISUALSTYLE
  5
3A
102
{ACAD_REACTORS
330
2A
102
}
102
{ACAD_XDICTIONARY
360
2CA
102
}
330
2A
100
AcDbVisualStyle
  2
ColorChange
 70
    16
 71
     2
 72
     2
 73
     3
 90
        0
 40
-0.6
 41
-30.0
 62
     5
 63
     8
 74
     1
 91
        4
 64
     7
 65
   257
 75
     1
175
     1
 42
1.0
 92
        8
 66
     8
 43
1.0
 76
     1
 77
     6
 78
     2
 67
     7
 79
     5
170
     0
171
     0
290
     0
174
     0
 93
        1
 44
0.0
173
     0
291
     1
 45
0.0
1001
ACAD
1000
AcDbSavedByObjectVersion
1070
     0
  0
VISUALSTYLE
  5
34
102
{ACAD_REACTORS
330
2A
102
}
102
{ACAD_XDICTIONARY
360
2BE
102
}
330
2A
100
AcDbVisualStyle
  2
Conceptual
 70
     9
 71
     3
 72
     2
 73
     0
 90
        0
 40
-0.6
 41
-30.0
 62
     5
 63
     7
 74
     2
 91
        2
 64
     7
 65
   257
 75
     1
175
     1
 42
40.0
 92
        8
 66
     7
 43
1.0
 76
     1
 77
     6
 78
     2
 67
     7
 79
     3
170
     0
171
     0
290
     0
174
     0
 93
        1
 44
0.0
173
     0
291
     0
 45
0.0
1001
ACAD
1000
AcDbSavedByObjectVersion
1070
     0
  0
VISUALSTYLE
  5
35
102
{ACAD_REACTORS
330
2A
102
}
102
{ACAD_XDICTIONARY
360
2C0
102
}
330
2A
100
AcDbVisualStyle
  2
Dim
 70
    11
 71
     2
 72
     2
 73
     0
 90
        0
 40
-0.6
 41
-30.0
 62
     5
 63
     7
 74
     1
 91
        4
 64
     7
 65
   257
 75
     1
175
     1
 42
1.0
 92
        8
 66
     7
 43
1.0
 76
     1
 77
     6
 78
     2
 67
     7
 79
     5
170
     0
171
     0
290
     0
174
     0
 93
        1
 44
-50.0
173
     0
291
     1
 45
0.0
1001
ACAD
1000
AcDbSavedByObjectVersion
1070
     0
  0
VISUALSTYLE
  5
39
102
{ACAD_REACTORS
330
2A
102
}
102
{ACAD_XDICTIONARY
360
2C8
102
}
330
2A
100
AcDbVisualStyle
  2
Facepattern
 70
    15
 71
     2
 72
     2
 73
     0
 90
        0
 40
-0.6
 41
-30.0
 62
     5
 63
     7
 74
     1
 91
        4
 64
     7
 65
   257
 75
     1
175
     1
 42
1.0
 92
        8
 66
     7
 43
1.0
 76
     1
 77
     6
 78
     2
 67
     7
 79
     5
170
     0
171
     0
290
     0
174
     0
 93
        1
 44
0.0
173
     0
291
     1
 45
0.0
1001
ACAD
1000
AcDbSavedByObjectVersion
1070
     0
  0
VISUALSTYLE
  5
2B
102
{ACAD_REACTORS
330
2A
102
}
102
{ACAD_XDICTIONARY
360
2AC
102
}
330
2A
100
AcDbVisualStyle
  2
Flat
 70
     0
 71
     2
 72
     1
 73
     1
 90
        2
 40
-0.6
 41
30.0
 62
     5
 63
     7
 74
     0
 91
        4
 64
     7
 65
   257
 75
     1
175
     1
 42
1.0
 92
        8
 66
     7
 43
1.0
 76
     1
 77
     6
 78
     2
 67
     7
 79
     5
170
     0
171
     0
290
     0
174
     0
 93
       13
 44
0.0
173
     0
291
     1
 45
0.0
1001
ACAD
1000
AcDbSavedByObjectVersion
1070
     0
  0
VISUALSTYLE
  5
2C
102
{ACAD_REACTORS
330
2A
102
}
102
{ACAD_XDICTIONARY
360
2AE
102
}
330
2A
100
AcDbVisualStyle
  2
FlatWithEdges
 70
     1
 71
     2
 72
     1
 73
     1
 90
        2
 40
-0.6
 41
30.0
 62
     5
 63
     7
 74
     1
 91
        4
 64
     7
 65
   257
 75
     1
175
     1
 42
1.0
 92
        0
 66
   257
 43
1.0
 76
     1
 77
     6
 78
     2
 67
     7
 79
     5
170
     0
171
     0
290
     0
174
     0
 93
       13
 44
0.0
173
     0
291
     1
 45
0.0
1001
ACAD
1000
AcDbSavedByObjectVersion
1070
     0
  0
VISUALSTYLE
  5
2D
102
{ACAD_REACTORS
330
2A
102
}
102
{ACAD_XDICTIONARY
360
2B0
102
}
330
2A
100
AcDbVisualStyle
  2
Gouraud
 70
     2
 71
     2
 72
     2
 73
     1
 90
        2
 40
-0.6
 41
30.0
 62
     5
 63
     7
 74
     0
 91
        4
 64
     7
 65
   257
 75
     1
175
     1
 42
1.0
 92
        0
 66
     7
 43
1.0
 76
     1
 77
     6
 78
     2
 67
     7
 79
     5
170
     0
171
     0
290
     0
174
     0
 93
       13
 44
0.0
173
     0
291
     1
 45
0.0
1001
ACAD
1000
AcDbSavedByObjectVersion
1070
     0
  0
VISUALSTYLE
  5
2E
102
{ACAD_REACTORS
330
2A
102
}
102
{ACAD_XDICTIONARY
360
2B2
102
}
330
2A
100
AcDbVisualStyle
  2
GouraudWithEdges
 70
     3
 71
     2
 72
     2
 73
     1
 90
        2
 40
-0.6
 41
30.0
 62
     5
 63
     7
 74
     1
 91
        4
 64
     7
 65
   257
 75
     1
175
     1
 42
1.0
 92
        0
 66
   257
 43
1.0
 76
     1
 77
     6
 78
     2
 67
     7
 79
     5
170
     0
171
     0
290
     0
174
     0
 93
       13
 44
0.0
173
     0
291
     1
 45
0.0
1001
ACAD
1000
AcDbSavedByObjectVersion
1070
     0
  0
VISUALSTYLE
  5
38
102
{ACAD_REACTORS
330
2A
102
}
102
{ACAD_XDICTIONARY
360
2C6
102
}
330
2A
100
AcDbVisualStyle
  2
Linepattern
 70
    14
 71
     2
 72
     2
 73
     0
 90
        0
 40
-0.6
 41
-30.0
 62
     5
 63
     7
 74
     1
 91
        4
 64
     7
 65
   257
 75
     7
175
     7
 42
1.0
 92
        8
 66
     7
 43
1.0
 76
     1
 77
     6
 78
     2
 67
     7
 79
     5
170
     0
171
     0
290
     0
174
     0
 93
        1
 44
0.0
173
     0
291
     1
 45
0.0
1001
ACAD
1000
AcDbSavedByObjectVersion
1070
     0
  0
VISUALSTYLE
  5
33
102
{ACAD_REACTORS
330
2A
102
}
102
{ACAD_XDICTIONARY
360
2BC
102
}
330
2A
100
AcDbVisualStyle
  2
Realistic
 70
     8
 71
     2
 72
     2
 73
     0
 90
        0
 40
-0.6
 41
-30.0
 62
     5
 63
     7
 74
     1
 91
        0
 64
     7
 65
   257
 75
     1
175
     1
 42
1.0
 92
        8
 66
     8
 43
1.0
 76
     1
 77
     6
 78
     2
 67
     7
 79
     5
170
     0
171
     0
290
     0
174
     0
 93
       13
 44
0.0
173
     0
291
     0
 45
0.0
1001
ACAD
1000
AcDbSavedByObjectVersion
1070
     0
  0
VISUALSTYLE
  5
37
102
{ACAD_REACTORS
330
2A
102
}
102
{ACAD_XDICTIONARY
360
2C4
102
}
330
2A
100
AcDbVisualStyle
  2
Thicken
 70
    13
 71
     2
 72
     2
 73
     0
 90
        0
 40
-0.6
 41
-30.0
 62
     5
 63
     7
 74
     1
 91
        4
 64
     7
 65
   257
 75
     1
175
     1
 42
1.0
 92
       12
 66
     7
 43
1.0
 76
     1
 77
     6
 78
     2
 67
     7
 79
     5
170
     0
171
     0
290
     0
174
     0
 93
        1
 44
0.0
173
     0
291
     1
 45
0.0
1001
ACAD
1000
AcDbSavedByObjectVersion
1070
     0
  0
DICTIONARYVAR
  5
2AA
102
{ACAD_REACTORS
330
2A7
102
}
330
2A7
100
DictionaryVariables
280
     0
  1
2
  0
DICTIONARYVAR
  5
2AB
102
{ACAD_REACTORS
330
2A7
102
}
330
2A7
100
DictionaryVariables
280
     0
  1
1
  0
DICTIONARY
  5
2CE
330
3D
100
AcDbDictionary
280
     1
281
     1
  3
ACAD_XREC_ROUNDTRIP
360
2CF
  0
DICTIONARY
  5
2CC
330
3C
100
AcDbDictionary
280
     1
281
     1
  3
ACAD_XREC_ROUNDTRIP
360
2CD
  0
DICTIONARY
  5
2D0
330
3E
100
AcDbDictionary
280
     1
281
     1
  3
ACAD_XREC_ROUNDTRIP
360
2D1
  0
DICTIONARY
  5
2B4
330
2F
100
AcDbDictionary
280
     1
281
     1
  3
ACAD_XREC_ROUNDTRIP
360
2B5
  0
DICTIONARY
  5
2B8
330
31
100
AcDbDictionary
280
     1
281
     1
  3
ACAD_XREC_ROUNDTRIP
360
2B9
  0
DICTIONARY
  5
2B6
330
30
100
AcDbDictionary
280
     1
281
     1
  3
ACAD_XREC_ROUNDTRIP
360
2B7
  0
DICTIONARY
  5
2BA
330
32
100
AcDbDictionary
280
     1
281
     1
  3
ACAD_XREC_ROUNDTRIP
360
2BB
  0
DICTIONARY
  5
2C2
330
36
100
AcDbDictionary
280
     1
281
     1
  3
ACAD_XREC_ROUNDTRIP
360
2C3
  0
DICTIONARY
  5
2CA
330
3A
100
AcDbDictionary
280
     1
281
     1
  3
ACAD_XREC_ROUNDTRIP
360
2CB
  0
DICTIONARY
  5
2BE
330
34
100
AcDbDictionary
280
     1
281
     1
  3
ACAD_XREC_ROUNDTRIP
360
2BF
  0
DICTIONARY
  5
2C0
330
35
100
AcDbDictionary
280
     1
281
     1
  3
ACAD_XREC_ROUNDTRIP
360
2C1
  0
DICTIONARY
  5
2C8
330
39
100
AcDbDictionary
280
     1
281
     1
  3
ACAD_XREC_ROUNDTRIP
360
2C9
  0
DICTIONARY
  5
2AC
330
2B
100
AcDbDictionary
280
     1
281
     1
  3
ACAD_XREC_ROUNDTRIP
360
2AD
  0
DICTIONARY
  5
2AE
330
2C
100
AcDbDictionary
280
     1
281
     1
  3
ACAD_XREC_ROUNDTRIP
360
2AF
  0
DICTIONARY
  5
2B0
330
2D
100
AcDbDictionary
280
     1
281
     1
  3
ACAD_XREC_ROUNDTRIP
360
2B1
  0
DICTIONARY
  5
2B2
330
2E
100
AcDbDictionary
280
     1
281
     1
  3
ACAD_XREC_ROUNDTRIP
360
2B3
  0
DICTIONARY
  5
2C6
330
38
100
AcDbDictionary
280
     1
281
     1
  3
ACAD_XREC_ROUNDTRIP
360
2C7
  0
DICTIONARY
  5
2BC
330
33
100
AcDbDictionary
280
     1
281
     1
  3
ACAD_XREC_ROUNDTRIP
360
2BD
  0
DICTIONARY
  5
2C4
330
37
100
AcDbDictionary
280
     1
281
     1
  3
ACAD_XREC_ROUNDTRIP
360
2C5
  0
XRECORD
  5
2CF
102
{ACAD_REACTORS
330
2CE
102
}
330
2CE
100
AcDbXrecord
280
     1
102
MATERIAL
148
0.0
149
0.0
149
0.0
 93
        0
 94
      127
282
     0
 72
     1
 77
     1
171
     1
175
     1
179
     1
273
     0
  0
XRECORD
  5
2CD
102
{ACAD_REACTORS
330
2CC
102
}
330
2CC
100
AcDbXrecord
280
     1
102
MATERIAL
148
0.0
149
0.0
149
0.0
 93
        0
 94
      127
282
     0
 72
     1
 77
     1
171
     1
175
     1
179
     1
273
     0
  0
XRECORD
  5
2D1
102
{ACAD_REACTORS
330
2D0
102
}
330
2D0
100
AcDbXrecord
280
     1
102
MATERIAL
148
0.0
149
0.0
149
0.0
 93
        0
 94
      127
282
     0
 72
     1
 77
     1
171
     1
175
     1
179
     1
273
     0
  0
XRECORD
  5
2B5
102
{ACAD_REACTORS
330
2B4
102
}
330
2B4
100
AcDbXrecord
280
     1
102
RTVSPropertyOp0
 70
     1
102
RTVSPropertyOp1
 70
     1
102
RTVSPropertyOp2
 70
     1
102
RTVSPropertyOp3
 70
     1
102
RTVSPropertyOp4
 70
     1
102
RTVSPropertyOp5
 70
     1
102
RTVSPropertyOp6
 70
     1
102
RTVSPropertyOp7
 70
     1
102
RTVSPropertyOp8
 70
     1
102
RTVSPropertyOp9
 70
     1
102
RTVSPropertyOp10
 70
     1
102
RTVSPropertyOp11
 70
     1
102
RTVSPropertyOp12
 70
     1
102
RTVSPropertyOp13
 70
     1
102
RTVSPropertyOp14
 70
     1
102
RTVSPropertyOp15
 70
     1
102
RTVSPropertyOp16
 70
     1
102
RTVSPropertyOp17
 70
     1
102
RTVSPropertyOp18
 70
     1
102
RTVSPropertyOp19
 70
     1
102
RTVSPropertyOp20
 70
     1
102
RTVSPropertyOp21
 70
     1
102
RTVSPropertyOp22
 70
     1
102
RTVSPropertyOp23
 70
     1
102
RTVSPropertyOp24
 70
     1
102
RTVSPropertyOp25
 70
     1
102
RTVSPropertyOp26
 70
     1
102
RTVSPropertyOp27
 70
     1
102
RTVSPropertyOp28
 70
     1
102
RTVSPropertyOp29
 70
     1
102
RTVSPropertyOp30
 70
     1
102
RTVSPropertyOp31
 70
     1
102
RTVSPropertyOp32
 70
     1
  0
XRECORD
  5
2B9
102
{ACAD_REACTORS
330
2B8
102
}
330
2B8
100
AcDbXrecord
280
     1
102
RTVSPropertyOp0
 70
     1
102
RTVSPropertyOp1
 70
     1
102
RTVSPropertyOp2
 70
     1
102
RTVSPropertyOp3
 70
     1
102
RTVSPropertyOp4
 70
     1
102
RTVSPropertyOp5
 70
     1
102
RTVSPropertyOp6
 70
     1
102
RTVSPropertyOp7
 70
     1
102
RTVSPropertyOp8
 70
     1
102
RTVSPropertyOp9
 70
     1
102
RTVSPropertyOp10
 70
     1
102
RTVSPropertyOp11
 70
     1
102
RTVSPropertyOp12
 70
     1
102
RTVSPropertyOp13
 70
     1
102
RTVSPropertyOp14
 70
     1
102
RTVSPropertyOp15
 70
     1
102
RTVSPropertyOp16
 70
     1
102
RTVSPropertyOp17
 70
     1
102
RTVSPropertyOp18
 70
     1
102
RTVSPropertyOp19
 70
     1
102
RTVSPropertyOp20
 70
     1
102
RTVSPropertyOp21
 70
     1
102
RTVSPropertyOp22
 70
     1
102
RTVSPropertyOp23
 70
     1
102
RTVSPropertyOp24
 70
     1
102
RTVSPropertyOp25
 70
     1
102
RTVSPropertyOp26
 70
     1
102
RTVSPropertyOp27
 70
     1
102
RTVSPropertyOp28
 70
     1
102
RTVSPropertyOp29
 70
     1
102
RTVSPropertyOp30
 70
     1
102
RTVSPropertyOp31
 70
     1
102
RTVSPropertyOp32
 70
     1
  0
XRECORD
  5
2B7
102
{ACAD_REACTORS
330
2B6
102
}
330
2B6
100
AcDbXrecord
280
     1
102
RTVSPropertyOp0
 70
     1
102
RTVSPropertyOp1
 70
     1
102
RTVSPropertyOp2
 70
     1
102
RTVSPropertyOp3
 70
     1
102
RTVSPropertyOp4
 70
     1
102
RTVSPropertyOp5
 70
     1
102
RTVSPropertyOp6
 70
     1
102
RTVSPropertyOp7
 70
     1
102
RTVSPropertyOp8
 70
     1
102
RTVSPropertyOp9
 70
     1
102
RTVSPropertyOp10
 70
     1
102
RTVSPropertyOp11
 70
     1
102
RTVSPropertyOp12
 70
     1
102
RTVSPropertyOp13
 70
     1
102
RTVSPropertyOp14
 70
     1
102
RTVSPropertyOp15
 70
     1
102
RTVSPropertyOp16
 70
     1
102
RTVSPropertyOp17
 70
     1
102
RTVSPropertyOp18
 70
     1
102
RTVSPropertyOp19
 70
     1
102
RTVSPropertyOp20
 70
     1
102
RTVSPropertyOp21
 70
     1
102
RTVSPropertyOp22
 70
     1
102
RTVSPropertyOp23
 70
     1
102
RTVSPropertyOp24
 70
     1
102
RTVSPropertyOp25
 70
     1
102
RTVSPropertyOp26
 70
     1
102
RTVSPropertyOp27
 70
     1
102
RTVSPropertyOp28
 70
     1
102
RTVSPropertyOp29
 70
     1
102
RTVSPropertyOp30
 70
     1
102
RTVSPropertyOp31
 70
     1
102
RTVSPropertyOp32
 70
     1
  0
XRECORD
  5
2BB
102
{ACAD_REACTORS
330
2BA
102
}
330
2BA
100
AcDbXrecord
280
     1
102
RTVSPropertyOp0
 70
     1
102
RTVSPropertyOp1
 70
     1
102
RTVSPropertyOp2
 70
     1
102
RTVSPropertyOp3
 70
     1
102
RTVSPropertyOp4
 70
     1
102
RTVSPropertyOp5
 70
     1
102
RTVSPropertyOp6
 70
     1
102
RTVSPropertyOp7
 70
     1
102
RTVSPropertyOp8
 70
     1
102
RTVSPropertyOp9
 70
     1
102
RTVSPropertyOp10
 70
     1
102
RTVSPropertyOp11
 70
     1
102
RTVSPropertyOp12
 70
     1
102
RTVSPropertyOp13
 70
     1
102
RTVSPropertyOp14
 70
     1
102
RTVSPropertyOp15
 70
     1
102
RTVSPropertyOp16
 70
     1
102
RTVSPropertyOp17
 70
     1
102
RTVSPropertyOp18
 70
     1
102
RTVSPropertyOp19
 70
     1
102
RTVSPropertyOp20
 70
     1
102
RTVSPropertyOp21
 70
     1
102
RTVSPropertyOp22
 70
     1
102
RTVSPropertyOp23
 70
     1
102
RTVSPropertyOp24
 70
     1
102
RTVSPropertyOp25
 70
     1
102
RTVSPropertyOp26
 70
     1
102
RTVSPropertyOp27
 70
     1
102
RTVSPropertyOp28
 70
     1
102
RTVSPropertyOp29
 70
     1
102
RTVSPropertyOp30
 70
     1
102
RTVSPropertyOp31
 70
     1
102
RTVSPropertyOp32
 70
     1
  0
XRECORD
  5
2C3
102
{ACAD_REACTORS
330
2C2
102
}
330
2C2
100
AcDbXrecord
280
     1
102
RTVSPropertyOp0
 70
     1
102
RTVSPropertyOp1
 70
     1
102
RTVSPropertyOp2
 70
     1
102
RTVSPropertyOp3
 70
     1
102
RTVSPropertyOp4
 70
     1
102
RTVSPropertyOp5
 70
     1
102
RTVSPropertyOp6
 70
     1
102
RTVSPropertyOp7
 70
     1
102
RTVSPropertyOp8
 70
     1
102
RTVSPropertyOp9
 70
     1
102
RTVSPropertyOp10
 70
     1
102
RTVSPropertyOp11
 70
     1
102
RTVSPropertyOp12
 70
     1
102
RTVSPropertyOp13
 70
     1
102
RTVSPropertyOp14
 70
     1
102
RTVSPropertyOp15
 70
     1
102
RTVSPropertyOp16
 70
     1
102
RTVSPropertyOp17
 70
     1
102
RTVSPropertyOp18
 70
     1
102
RTVSPropertyOp19
 70
     1
102
RTVSPropertyOp20
 70
     1
102
RTVSPropertyOp21
 70
     1
102
RTVSPropertyOp22
 70
     1
102
RTVSPropertyOp23
 70
     1
102
RTVSPropertyOp24
 70
     1
102
RTVSPropertyOp25
 70
     1
102
RTVSPropertyOp26
 70
     1
102
RTVSPropertyOp27
 70
     1
102
RTVSPropertyOp28
 70
     1
102
RTVSPropertyOp29
 70
     1
102
RTVSPropertyOp30
 70
     1
102
RTVSPropertyOp31
 70
     1
102
RTVSPropertyOp32
 70
     1
  0
XRECORD
  5
2CB
102
{ACAD_REACTORS
330
2CA
102
}
330
2CA
100
AcDbXrecord
280
     1
102
RTVSPropertyOp0
 70
     1
102
RTVSPropertyOp1
 70
     1
102
RTVSPropertyOp2
 70
     1
102
RTVSPropertyOp3
 70
     1
102
RTVSPropertyOp4
 70
     1
102
RTVSPropertyOp5
 70
     1
102
RTVSPropertyOp6
 70
     1
102
RTVSPropertyOp7
 70
     1
102
RTVSPropertyOp8
 70
     1
102
RTVSPropertyOp9
 70
     1
102
RTVSPropertyOp10
 70
     1
102
RTVSPropertyOp11
 70
     1
102
RTVSPropertyOp12
 70
     1
102
RTVSPropertyOp13
 70
     1
102
RTVSPropertyOp14
 70
     1
102
RTVSPropertyOp15
 70
     1
102
RTVSPropertyOp16
 70
     1
102
RTVSPropertyOp17
 70
     1
102
RTVSPropertyOp18
 70
     1
102
RTVSPropertyOp19
 70
     1
102
RTVSPropertyOp20
 70
     1
102
RTVSPropertyOp21
 70
     1
102
RTVSPropertyOp22
 70
     1
102
RTVSPropertyOp23
 70
     1
102
RTVSPropertyOp24
 70
     1
102
RTVSPropertyOp25
 70
     1
102
RTVSPropertyOp26
 70
     1
102
RTVSPropertyOp27
 70
     1
102
RTVSPropertyOp28
 70
     1
102
RTVSPropertyOp29
 70
     1
102
RTVSPropertyOp30
 70
     1
102
RTVSPropertyOp31
 70
     1
102
RTVSPropertyOp32
 70
     1
  0
XRECORD
  5
2BF
102
{ACAD_REACTORS
330
2BE
102
}
330
2BE
100
AcDbXrecord
280
     1
102
RTVSPropertyOp0
 70
     1
102
RTVSPropertyOp1
 70
     1
102
RTVSPropertyOp2
 70
     1
102
RTVSPropertyOp3
 70
     1
102
RTVSPropertyOp4
 70
     1
102
RTVSPropertyOp5
 70
     1
102
RTVSPropertyOp6
 70
     1
102
RTVSPropertyOp7
 70
     1
102
RTVSPropertyOp8
 70
     1
102
RTVSPropertyOp9
 70
     1
102
RTVSPropertyOp10
 70
     1
102
RTVSPropertyOp11
 70
     1
102
RTVSPropertyOp12
 70
     1
102
RTVSPropertyOp13
 70
     1
102
RTVSPropertyOp14
 70
     1
102
RTVSPropertyOp15
 70
     1
102
RTVSPropertyOp16
 70
     1
102
RTVSPropertyOp17
 70
     1
102
RTVSPropertyOp18
 70
     1
102
RTVSPropertyOp19
 70
     1
102
RTVSPropertyOp20
 70
     1
102
RTVSPropertyOp21
 70
     1
102
RTVSPropertyOp22
 70
     1
102
RTVSPropertyOp23
 70
     1
102
RTVSPropertyOp24
 70
     1
102
RTVSPropertyOp25
 70
     1
102
RTVSPropertyOp26
 70
     1
102
RTVSPropertyOp27
 70
     1
102
RTVSPropertyOp28
 70
     1
102
RTVSPropertyOp29
 70
     1
102
RTVSPropertyOp30
 70
     1
102
RTVSPropertyOp31
 70
     1
102
RTVSPropertyOp32
 70
     1
  0
XRECORD
  5
2C1
102
{ACAD_REACTORS
330
2C0
102
}
330
2C0
100
AcDbXrecord
280
     1
102
RTVSPropertyOp0
 70
     1
102
RTVSPropertyOp1
 70
     1
102
RTVSPropertyOp2
 70
     1
102
RTVSPropertyOp3
 70
     1
102
RTVSPropertyOp4
 70
     1
102
RTVSPropertyOp5
 70
     1
102
RTVSPropertyOp6
 70
     1
102
RTVSPropertyOp7
 70
     1
102
RTVSPropertyOp8
 70
     1
102
RTVSPropertyOp9
 70
     1
102
RTVSPropertyOp10
 70
     1
102
RTVSPropertyOp11
 70
     1
102
RTVSPropertyOp12
 70
     1
102
RTVSPropertyOp13
 70
     1
102
RTVSPropertyOp14
 70
     1
102
RTVSPropertyOp15
 70
     1
102
RTVSPropertyOp16
 70
     1
102
RTVSPropertyOp17
 70
     1
102
RTVSPropertyOp18
 70
     1
102
RTVSPropertyOp19
 70
     1
102
RTVSPropertyOp20
 70
     1
102
RTVSPropertyOp21
 70
     1
102
RTVSPropertyOp22
 70
     1
102
RTVSPropertyOp23
 70
     1
102
RTVSPropertyOp24
 70
     1
102
RTVSPropertyOp25
 70
     1
102
RTVSPropertyOp26
 70
     1
102
RTVSPropertyOp27
 70
     1
102
RTVSPropertyOp28
 70
     1
102
RTVSPropertyOp29
 70
     1
102
RTVSPropertyOp30
 70
     1
102
RTVSPropertyOp31
 70
     1
102
RTVSPropertyOp32
 70
     1
  0
XRECORD
  5
2C9
102
{ACAD_REACTORS
330
2C8
102
}
330
2C8
100
AcDbXrecord
280
     1
102
RTVSPropertyOp0
 70
     1
102
RTVSPropertyOp1
 70
     1
102
RTVSPropertyOp2
 70
     1
102
RTVSPropertyOp3
 70
     1
102
RTVSPropertyOp4
 70
     1
102
RTVSPropertyOp5
 70
     1
102
RTVSPropertyOp6
 70
     1
102
RTVSPropertyOp7
 70
     1
102
RTVSPropertyOp8
 70
     1
102
RTVSPropertyOp9
 70
     1
102
RTVSPropertyOp10
 70
     1
102
RTVSPropertyOp11
 70
     1
102
RTVSPropertyOp12
 70
     1
102
RTVSPropertyOp13
 70
     1
102
RTVSPropertyOp14
 70
     1
102
RTVSPropertyOp15
 70
     1
102
RTVSPropertyOp16
 70
     1
102
RTVSPropertyOp17
 70
     1
102
RTVSPropertyOp18
 70
     1
102
RTVSPropertyOp19
 70
     1
102
RTVSPropertyOp20
 70
     1
102
RTVSPropertyOp21
 70
     1
102
RTVSPropertyOp22
 70
     1
102
RTVSPropertyOp23
 70
     1
102
RTVSPropertyOp24
 70
     1
102
RTVSPropertyOp25
 70
     1
102
RTVSPropertyOp26
 70
     1
102
RTVSPropertyOp27
 70
     1
102
RTVSPropertyOp28
 70
     1
102
RTVSPropertyOp29
 70
     1
102
RTVSPropertyOp30
 70
     1
102
RTVSPropertyOp31
 70
     1
102
RTVSPropertyOp32
 70
     1
  0
XRECORD
  5
2AD
102
{ACAD_REACTORS
330
2AC
102
}
330
2AC
100
AcDbXrecord
280
     1
102
RTVSPropertyOp0
 70
     1
102
RTVSPropertyOp1
 70
     1
102
RTVSPropertyOp2
 70
     1
102
RTVSPropertyOp3
 70
     1
102
RTVSPropertyOp4
 70
     1
102
RTVSPropertyOp5
 70
     1
102
RTVSPropertyOp6
 70
     1
102
RTVSPropertyOp7
 70
     1
102
RTVSPropertyOp8
 70
     1
102
RTVSPropertyOp9
 70
     1
102
RTVSPropertyOp10
 70
     1
102
RTVSPropertyOp11
 70
     1
102
RTVSPropertyOp12
 70
     1
102
RTVSPropertyOp13
 70
     1
102
RTVSPropertyOp14
 70
     1
102
RTVSPropertyOp15
 70
     1
102
RTVSPropertyOp16
 70
     1
102
RTVSPropertyOp17
 70
     1
102
RTVSPropertyOp18
 70
     1
102
RTVSPropertyOp19
 70
     1
102
RTVSPropertyOp20
 70
     1
102
RTVSPropertyOp21
 70
     1
102
RTVSPropertyOp22
 70
     1
102
RTVSPropertyOp23
 70
     1
102
RTVSPropertyOp24
 70
     1
102
RTVSPropertyOp25
 70
     1
102
RTVSPropertyOp26
 70
     1
102
RTVSPropertyOp27
 70
     1
102
RTVSPropertyOp28
 70
     1
102
RTVSPropertyOp29
 70
     1
102
RTVSPropertyOp30
 70
     1
102
RTVSPropertyOp31
 70
     1
102
RTVSPropertyOp32
 70
     1
  0
XRECORD
  5
2AF
102
{ACAD_REACTORS
330
2AE
102
}
330
2AE
100
AcDbXrecord
280
     1
102
RTVSPropertyOp0
 70
     1
102
RTVSPropertyOp1
 70
     1
102
RTVSPropertyOp2
 70
     1
102
RTVSPropertyOp3
 70
     1
102
RTVSPropertyOp4
 70
     1
102
RTVSPropertyOp5
 70
     1
102
RTVSPropertyOp6
 70
     1
102
RTVSPropertyOp7
 70
     1
102
RTVSPropertyOp8
 70
     1
102
RTVSPropertyOp9
 70
     1
102
RTVSPropertyOp10
 70
     1
102
RTVSPropertyOp11
 70
     1
102
RTVSPropertyOp12
 70
     1
102
RTVSPropertyOp13
 70
     1
102
RTVSPropertyOp14
 70
     1
102
RTVSPropertyOp15
 70
     1
102
RTVSPropertyOp16
 70
     1
102
RTVSPropertyOp17
 70
     1
102
RTVSPropertyOp18
 70
     1
102
RTVSPropertyOp19
 70
     1
102
RTVSPropertyOp20
 70
     1
102
RTVSPropertyOp21
 70
     1
102
RTVSPropertyOp22
 70
     1
102
RTVSPropertyOp23
 70
     1
102
RTVSPropertyOp24
 70
     1
102
RTVSPropertyOp25
 70
     1
102
RTVSPropertyOp26
 70
     1
102
RTVSPropertyOp27
 70
     1
102
RTVSPropertyOp28
 70
     1
102
RTVSPropertyOp29
 70
     1
102
RTVSPropertyOp30
 70
     1
102
RTVSPropertyOp31
 70
     1
102
RTVSPropertyOp32
 70
     1
  0
XRECORD
  5
2B1
102
{ACAD_REACTORS
330
2B0
102
}
330
2B0
100
AcDbXrecord
280
     1
102
RTVSPropertyOp0
 70
     1
102
RTVSPropertyOp1
 70
     1
102
RTVSPropertyOp2
 70
     1
102
RTVSPropertyOp3
 70
     1
102
RTVSPropertyOp4
 70
     1
102
RTVSPropertyOp5
 70
     1
102
RTVSPropertyOp6
 70
     1
102
RTVSPropertyOp7
 70
     1
102
RTVSPropertyOp8
 70
     1
102
RTVSPropertyOp9
 70
     1
102
RTVSPropertyOp10
 70
     1
102
RTVSPropertyOp11
 70
     1
102
RTVSPropertyOp12
 70
     1
102
RTVSPropertyOp13
 70
     1
102
RTVSPropertyOp14
 70
     1
102
RTVSPropertyOp15
 70
     1
102
RTVSPropertyOp16
 70
     1
102
RTVSPropertyOp17
 70
     1
102
RTVSPropertyOp18
 70
     1
102
RTVSPropertyOp19
 70
     1
102
RTVSPropertyOp20
 70
     1
102
RTVSPropertyOp21
 70
     1
102
RTVSPropertyOp22
 70
     1
102
RTVSPropertyOp23
 70
     1
102
RTVSPropertyOp24
 70
     1
102
RTVSPropertyOp25
 70
     1
102
RTVSPropertyOp26
 70
     1
102
RTVSPropertyOp27
 70
     1
102
RTVSPropertyOp28
 70
     1
102
RTVSPropertyOp29
 70
     1
102
RTVSPropertyOp30
 70
     1
102
RTVSPropertyOp31
 70
     1
102
RTVSPropertyOp32
 70
     1
  0
XRECORD
  5
2B3
102
{ACAD_REACTORS
330
2B2
102
}
330
2B2
100
AcDbXrecord
280
     1
102
RTVSPropertyOp0
 70
     1
102
RTVSPropertyOp1
 70
     1
102
RTVSPropertyOp2
 70
     1
102
RTVSPropertyOp3
 70
     1
102
RTVSPropertyOp4
 70
     1
102
RTVSPropertyOp5
 70
     1
102
RTVSPropertyOp6
 70
     1
102
RTVSPropertyOp7
 70
     1
102
RTVSPropertyOp8
 70
     1
102
RTVSPropertyOp9
 70
     1
102
RTVSPropertyOp10
 70
     1
102
RTVSPropertyOp11
 70
     1
102
RTVSPropertyOp12
 70
     1
102
RTVSPropertyOp13
 70
     1
102
RTVSPropertyOp14
 70
     1
102
RTVSPropertyOp15
 70
     1
102
RTVSPropertyOp16
 70
     1
102
RTVSPropertyOp17
 70
     1
102
RTVSPropertyOp18
 70
     1
102
RTVSPropertyOp19
 70
     1
102
RTVSPropertyOp20
 70
     1
102
RTVSPropertyOp21
 70
     1
102
RTVSPropertyOp22
 70
     1
102
RTVSPropertyOp23
 70
     1
102
RTVSPropertyOp24
 70
     1
102
RTVSPropertyOp25
 70
     1
102
RTVSPropertyOp26
 70
     1
102
RTVSPropertyOp27
 70
     1
102
RTVSPropertyOp28
 70
     1
102
RTVSPropertyOp29
 70
     1
102
RTVSPropertyOp30
 70
     1
102
RTVSPropertyOp31
 70
     1
102
RTVSPropertyOp32
 70
     1
  0
XRECORD
  5
2C7
102
{ACAD_REACTORS
330
2C6
102
}
330
2C6
100
AcDbXrecord
280
     1
102
RTVSPropertyOp0
 70
     1
102
RTVSPropertyOp1
 70
     1
102
RTVSPropertyOp2
 70
     1
102
RTVSPropertyOp3
 70
     1
102
RTVSPropertyOp4
 70
     1
102
RTVSPropertyOp5
 70
     1
102
RTVSPropertyOp6
 70
     1
102
RTVSPropertyOp7
 70
     1
102
RTVSPropertyOp8
 70
     1
102
RTVSPropertyOp9
 70
     1
102
RTVSPropertyOp10
 70
     1
102
RTVSPropertyOp11
 70
     1
102
RTVSPropertyOp12
 70
     1
102
RTVSPropertyOp13
 70
     1
102
RTVSPropertyOp14
 70
     1
102
RTVSPropertyOp15
 70
     1
102
RTVSPropertyOp16
 70
     1
102
RTVSPropertyOp17
 70
     1
102
RTVSPropertyOp18
 70
     1
102
RTVSPropertyOp19
 70
     1
102
RTVSPropertyOp20
 70
     1
102
RTVSPropertyOp21
 70
     1
102
RTVSPropertyOp22
 70
     1
102
RTVSPropertyOp23
 70
     1
102
RTVSPropertyOp24
 70
     1
102
RTVSPropertyOp25
 70
     1
102
RTVSPropertyOp26
 70
     1
102
RTVSPropertyOp27
 70
     1
102
RTVSPropertyOp28
 70
     1
102
RTVSPropertyOp29
 70
     1
102
RTVSPropertyOp30
 70
     1
102
RTVSPropertyOp31
 70
     1
102
RTVSPropertyOp32
 70
     1
  0
XRECORD
  5
2BD
102
{ACAD_REACTORS
330
2BC
102
}
330
2BC
100
AcDbXrecord
280
     1
102
RTVSPropertyOp0
 70
     1
102
RTVSPropertyOp1
 70
     1
102
RTVSPropertyOp2
 70
     1
102
RTVSPropertyOp3
 70
     1
102
RTVSPropertyOp4
 70
     1
102
RTVSPropertyOp5
 70
     1
102
RTVSPropertyOp6
 70
     1
102
RTVSPropertyOp7
 70
     1
102
RTVSPropertyOp8
 70
     1
102
RTVSPropertyOp9
 70
     1
102
RTVSPropertyOp10
 70
     1
102
RTVSPropertyOp11
 70
     1
102
RTVSPropertyOp12
 70
     1
102
RTVSPropertyOp13
 70
     1
102
RTVSPropertyOp14
 70
     1
102
RTVSPropertyOp15
 70
     1
102
RTVSPropertyOp16
 70
     1
102
RTVSPropertyOp17
 70
     1
102
RTVSPropertyOp18
 70
     1
102
RTVSPropertyOp19
 70
     1
102
RTVSPropertyOp20
 70
     1
102
RTVSPropertyOp21
 70
     1
102
RTVSPropertyOp22
 70
     1
102
RTVSPropertyOp23
 70
     1
102
RTVSPropertyOp24
 70
     1
102
RTVSPropertyOp25
 70
     1
102
RTVSPropertyOp26
 70
     1
102
RTVSPropertyOp27
 70
     1
102
RTVSPropertyOp28
 70
     1
102
RTVSPropertyOp29
 70
     1
102
RTVSPropertyOp30
 70
     1
102
RTVSPropertyOp31
 70
     1
102
RTVSPropertyOp32
 70
     1
  0
XRECORD
  5
2C5
102
{ACAD_REACTORS
330
2C4
102
}
330
2C4
100
AcDbXrecord
280
     1
102
RTVSPropertyOp0
 70
     1
102
RTVSPropertyOp1
 70
     1
102
RTVSPropertyOp2
 70
     1
102
RTVSPropertyOp3
 70
     1
102
RTVSPropertyOp4
 70
     1
102
RTVSPropertyOp5
 70
     1
102
RTVSPropertyOp6
 70
     1
102
RTVSPropertyOp7
 70
     1
102
RTVSPropertyOp8
 70
     1
102
RTVSPropertyOp9
 70
     1
102
RTVSPropertyOp10
 70
     1
102
RTVSPropertyOp11
 70
     1
102
RTVSPropertyOp12
 70
     1
102
RTVSPropertyOp13
 70
     1
102
RTVSPropertyOp14
 70
     1
102
RTVSPropertyOp15
 70
     1
102
RTVSPropertyOp16
 70
     1
102
RTVSPropertyOp17
 70
     1
102
RTVSPropertyOp18
 70
     1
102
RTVSPropertyOp19
 70
     1
102
RTVSPropertyOp20
 70
     1
102
RTVSPropertyOp21
 70
     1
102
RTVSPropertyOp22
 70
     1
102
RTVSPropertyOp23
 70
     1
102
RTVSPropertyOp24
 70
     1
102
RTVSPropertyOp25
 70
     1
102
RTVSPropertyOp26
 70
     1
102
RTVSPropertyOp27
 70
     1
102
RTVSPropertyOp28
 70
     1
102
RTVSPropertyOp29
 70
     1
102
RTVSPropertyOp30
 70
     1
102
RTVSPropertyOp31
 70
     1
102
RTVSPropertyOp32
 70
     1
  0
ENDSEC
  0
EOF
